Welcome to Scribd, the world's digital library. Read, publish, and share books and documents. See more
Download
Standard view
Full view
of .
Look up keyword
Like this
1Activity
0 of .
Results for:
No results containing your search query
P. 1
Sergei Prokofiev & Dmitri Shostakovich - Works for 2 Pianists Under Soviet Rule

Sergei Prokofiev & Dmitri Shostakovich - Works for 2 Pianists Under Soviet Rule

Ratings: (0)|Views: 10|Likes:
Published by lauyongyi

More info:

Published by: lauyongyi on Nov 18, 2012
Copyright:Attribution Non-commercial

Availability:

Read on Scribd mobile: iPhone, iPad and Android.
download as TXT, PDF, TXT or read online from Scribd
See more
See less

10/16/2014

pdf

text

original

 
Exact Audio Copy V0.99 prebeta 5 from 4. May 2009Îò÷¸ò EAC îá èçâëå÷åíèè, âûïîëíåííîì 7. àïðåëÿ 2010, 22:56Sergei Prokofiev & Dmitri Shostakovich / Works for 2 Pianists under Soviet RuleÄèñêîâîä: Optiarc DVD RW AD-7203A Adapter: 4 ID: 1Ðåæèì ÷òåíèÿ : ÄîñòîâåðíîñòüÈñïîëüçîâàíèå òî÷íîãî ïîòîêà : ÄàÎòêëþ÷åíèå êýøà àóäèî : ÄàÈñïîëüçîâàíèå óêàçàòåëåé C2 : ÍåòÊîððåêöèÿ ñìåùåíèÿ ïðè ÷òåíèè : 48Ñïîñîáíîñòü ÷èòàòü îáëàñòè Lead-in è Lead-out : ÍåòÇàïîëíåíèå ïðîïóùåííûõ ñýìïëîâ òèøèíîé : ÄàÓäàëåíèå áëîêîâ ñ òèøèíîé â íà÷àëå è êîíöå : ÍåòÏðè âû÷èñëåíèÿõ CRC èñïîëüçîâàëèñü íóëåâûå ñýìïëû : ÄàÈíòåðôåéñ : Âñòðîåííûé Win32-èíòåðôåéñ äëÿ Win NT/200Âûõîäíîé ôîðìàò : Ïîëüçîâàòåëüñêèé êîäèðîâùèêÂûáðàííûé áèòðåéò : 128 kBit/sÊà÷åñòâî : ÂûñîêèéÄîáàâëåíèå ID3-òýãà : ÍåòÓòèëèòà ñæàòèÿ : C:\Program Files\FLAC\flac.exeÄîïîëíèòåëüíûå ïàðàìåòðû : -5 -V %sTOC èçâëå÷¸ííîãî CDÒðåê | Ñòàðò | Äëèòåëüíîñòü | Íà÷àëüíûé ñåêòîð | Êîíå÷íûé ñåêòîð---------------------------------------------------------------------1 | 0:00.00 | 2:33.69 | 0 | 115432 | 2:33.69 | 3:31.01 | 11544 | 273693 | 6:04.70 | 4:19.62 | 27370 | 468564 | 10:24.57 | 2:04.51 | 46857 | 562075 | 12:29.33 | 5:48.14 | 56208 | 823216 | 18:17.47 | 2:07.64 | 82322 | 919107 | 20:25.36 | 4:50.16 | 91911 | 1136768 | 25:15.52 | 3:40.44 | 113677 | 1302209 | 28:56.21 | 6:12.59 | 130221 | 15817910 | 35:09.05 | 4:18.44 | 158180 | 17757311 | 39:27.49 | 3:03.52 | 177574 | 19135012 | 42:31.26 | 8:18.36 | 191351 | 22873613 | 50:49.62 | 9:04.36 | 228737 | 269572Õàðàêòåðèñòèêè äèàïàçîíà èçâëå÷åíèÿ è ñîîáùåíèÿ îá îøèáêàõÂûáðàííûé äèàïàçîíÈìÿ ôàéëà D:\EAC\Sergei Prokofiev & Dmitri Shostakovich - Works for 2 Pianists under SovRule.wavÏèêîâûé óðîâåíü 98.8 %Êà÷åñòâî äèàïàçîíà 100.0 %CRC òåñòà 4B2E2DCDCRC êîïèè 4B2E2DCDÊîïèðîâàíèå... OK

You're Reading a Free Preview

Download
scribd
/*********** DO NOT ALTER ANYTHING BELOW THIS LINE ! ************/ var s_code=s.t();if(s_code)document.write(s_code)//-->