You are on page 1of 24

====== Assembly FreeVideoToSamsungPhonesConverter, ver. 1.0.4.

223 started 2/24/2


011 ======
1:06:54 PM.238|01|DBG|Enter Controller()
1:06:54 PM.238|01|DBG|propMan['AppPath'] = C:\Program Files\DVDVideoSoft\Free Vi
deo to Samsung Phones Converter\
1:06:54 PM.238|01|DBG|before DvsMain.InitializeComponent()
1:06:54 PM.253|01|DBG|==> DvsMain.ctor
1:06:54 PM.769|01|DBG|Code objects listing: AVConverter[DVDVideoSoft.AVConverter
.AVConverterImpl], PresetEditor[DVDVideoSoft.PresetEditor.PresetEditor], TagWrit
er[DVDVideoSoft.AVConverter.MediaTagsWriter],
1:06:54 PM.863|01|DBG|==> DvsMain::Init
1:06:54 PM.863|01|DBG|<== Init (base.Init has returned)
1:06:54 PM.910|01|DBG|==> Init
1:06:54 PM.956|01|DBG|<== Main_Load
1:06:55 PM.019|01|DBG|SetCulture() --- en-US
1:06:55 PM.269|01|DBG|==> Main_Load
1:06:55 PM.410|01|DBG|Try to CheckForUpdates()
1:07:19 PM.113|01|INF|AVConverter code object created (DVDVideoSoft.AVConverter.
dll/DVDVideoSoft.AVConverter.AVConverterImpl)
1:07:19 PM.113|01|INF|TagWriter code object created (DVDVideoSoft.AVConverter.dl
l/DVDVideoSoft.AVConverter.MediaTagsWriter)
1:07:19 PM.160|01|DBG|<== Open //D:\games\Counter Strike\New Folde\Japanese hous
ewife is vulnerable_2.flv
1:07:19 PM.191|01|DBG|==> Open
1:08:20 PM.613|01|DBG|convertButton_Click()
1:08:20 PM.628|01|DBG|Conversion items (output file names):
1:08:20 PM.628|01|DBG| C:\Documents and Settings\Rakesh\Desktop\Japanes
e housewife is vulnerable_2.mp4
1:08:20 PM.628|01|DBG|<== Convert()
1:08:20 PM.628|01|INF|Preset: MPEG4 320x240, 60 Kbps; AAC 12 Kbps, 8 kHz / Samsu
ng SGH U800
1:08:20 PM.706|01|DBG|==> Convert()
1:11:04 PM.206|03|DBG|converter_itemProcessedEvent()
1:11:04 PM.222|01|DBG|converter_completedEvent()
1:11:04 PM.222|01|INF|Conversion was completed successfully
1:17:34 PM.253|01|DBG|convertButton_Click()
1:17:34 PM.253|01|DBG|Conversion items (output file names):
1:17:34 PM.253|01|DBG| C:\Documents and Settings\Rakesh\Desktop\Japanes
e housewife is vulnerable_2.mp4
1:17:34 PM.253|01|DBG|<== Convert()
1:17:34 PM.253|01|INF|Preset: MPEG4 320x320, 1.5 Mbps; AAC 128 Kbps, 48 kHz / Sa
msung Omnia Pro B7330
1:17:34 PM.253|01|DBG|==> Convert()
1:22:30 PM.910|04|DBG|converter_itemProcessedEvent()
1:22:30 PM.910|01|DBG|converter_completedEvent()
1:22:30 PM.910|01|INF|Conversion was completed successfully
1:26:46 PM.894|01|DBG|DvsMain.Dispose(True)
1:06:57 PM.613|01|DBG|SetCulture() --- en-US
1:06:57 PM.769|01|DBG|==> Main_Load
1:06:57 PM.878|01|DBG|Try to CheckForUpdates()
1:07:02 PM.628|01|DBG|DvsMain.Dispose(True)
[VC] ====== Start time: 2/24/2011, 13:7:19
[VC] Module VC Log Version = 1,6,14,208
[VC] OS Info 5 1 S 2 0
[VC] [v08.02.2010] In Open(D:\games\Counter Strike\New Folde\Japanese housewife
is vulnerable_2.flv)
[VC] Duration was fixed: from 1109.560000 to 309.000000
[VC] FileFormat: flv, 309.000000
[VC] Video: vp6f, 0, 640x480, 1000.000000
[VC] Audio: mp3, 56000, 22050, 1
[VC] Title: Artist: Album: Year: 0 Track: 0
[VC] Out Open = S_OK
[VC] [v08.02.2010] In Open(D:\games\Counter Strike\New Folde\Japanese housewife
is vulnerable_2.flv)
[VC] Duration was fixed: from 1109.560000 to 309.000000
[VC] FileFormat: flv, 309.000000
[VC] Video: vp6f, 0, 640x480, 1000.000000
[VC] Audio: mp3, 56000, 22050, 1
[VC] Title: Artist: Album: Year: 0 Track: 0
[VC] Out Open = S_OK
[VC] Set output video format, input stream id: 0, id: 0, index: 0, format type:
0, width: 1073742144, height: 240, bit rate: 60000, frame rate: 15.000000, pixel
format: 0, native format type: 0.
[VC] Set output audio format, input stream id: 1, id: 0, index: 0, format type:
0, bit rate: 12000, sample rate: 8000, channels: 1, sample format: 0, native for
mat type: 0.
[VC] [v09.06.2010] Save C:\Documents and Settings\Rakesh\Desktop\Japanese housew
ife is vulnerable_2.mp4
[VC] Input audio and video streams: 1, 1. Extended output audio and video stream
s: 1, 1
[VC] Extended regime to convert: yes
[VC] SameVideoQualityAsSource: 0
[VC] OutputVideoFormat: 1, 0, 320, 240, 15.000000, 60000
[VC] OutputAudioFormat: 0, 12000, 8000, 1
[VC] OutTimeInterval: 0.000000, -1.000000
[VC] Corrected videoOutputWidth: 320, videoOutputHeight: 240
"C:\Program Files\Common Files\DVDVideoSoft\Dll\\ffmpeg.exe" -y -i "D:\games\Cou
nter Strike\New Folde\Japanese housewife is vulnerable_2.flv" -map 0:0 -map 0:1
-ss 0.00 -vcodec mpeg4 -r 15.000000 -s 320x240 -b 60000 -aspect 4:3 -acodec libf
aac -ab 12000 -ar 8000 -ac 1 -f mp4 -threads 3 "C:\Documents and Settings\Rakesh
\Desktop\Japanese housewife is vulnerable_2.mp4"
FFmpeg version r21343-www.DVDVideoSoft.com, Copyright (c) 2000-2010 Fabrice Bell
ard, et al.
built on Feb 2 2010 17:23:32 with gcc 4.2.4
libavutil 50. 7. 0 / 50. 7. 0
libavcodec 52.48. 0 / 52.48. 0
libavformat 52.47. 0 / 52.47. 0
libavdevice 52. 2. 0 / 52. 2. 0
libavfilter 1.17. 0 / 1.17. 0
libswscale 0. 8. 0 / 0. 8. 0
libpostproc 51. 2. 0 / 51. 2. 0
[flv @ 0xa70050]invalid stream
[flv @ 0xa70050]Estimating duration from bitrate, this may be inaccurate
Seems stream 0 codec frame rate differs from container frame rate: 1000.00 (1000
/1) -> 25.00 (25/1)
Input #0, flv, from 'D:\games\Counter Strike\New Folde\Japanese housewife is vul
nerable_2.flv':
Duration: 00:18:29.56, start: 253.920000, bitrate: 56 kb/s
Stream #0.0: Video: vp6f, yuv420p, 640x480, 25 tbr, 1k tbn, 1k tbc
Stream #0.1: Audio: mp3, 22050 Hz, 1 channels, s16, 56 kb/s
Output #0, mp4, to 'C:\Documents and Settings\Rakesh\Desktop\Japanese housewife
is vulnerable_2.mp4':
Stream #0.0: Video: mpeg4, yuv420p, 320x240 [PAR 1:1 DAR 4:3], q=2-31, 60 kb
/s, 15 tbn, 15 tbc
Stream #0.1: Audio: aac, 8000 Hz, 1 channels, s16, 12 kb/s
Stream mapping:
Stream #0.0 -> #0.0
Stream #0.1 -> #0.1
Press [q] to stop encoding
frame= 38 fps= 0 q=8.8 size= 53kB time=2.05 bitrate= 211.4kbits/s dup=0
[VC] Convert Success
drop=25

[VC] [v08.02.2010] In Open(D:\games\Counter Strike\New Folde\Japanese housewife


is vulnerable_2.flv)
[VC] Duration was fixed: from 1109.560000 to 309.000000
[VC] FileFormat: flv, 309.000000
[VC] Video: vp6f, 0, 640x480, 1000.000000
[VC] Audio: mp3, 56000, 22050, 1
[VC] Title: Artist: Album: Year: 0 Track: 0
[VC] Out Open = S_OK
[VC] Set output video format, input stream id: 0, id: 0, index: 0, format type:
0, width: 1073742144, height: 320, bit rate: 1500000, frame rate: 24.000000, pix
el format: 0, native format type: 0.
[VC] Set output audio format, input stream id: 1, id: 0, index: 0, format type:
0, bit rate: 128000, sample rate: 48000, channels: 2, sample format: 0, native f
ormat type: 0.
[VC] [v09.06.2010] Save C:\Documents and Settings\Rakesh\Desktop\Japanese housew
ife is vulnerable_2.mp4
[VC] Input audio and video streams: 1, 1. Extended output audio and video stream
s: 1, 1
[VC] Extended regime to convert: yes
[VC] SameVideoQualityAsSource: 0
[VC] OutputVideoFormat: 1, 0, 320, 320, 24.000000, 1500000
[VC] OutputAudioFormat: 0, 128000, 48000, 2
[VC] OutTimeInterval: 0.000000, -1.000000
[VC] Corrected videoOutputWidth: 320, videoOutputHeight: 240
"C:\Program Files\Common Files\DVDVideoSoft\Dll\\ffmpeg.exe" -y -i "D:\games\Cou
nter Strike\New Folde\Japanese housewife is vulnerable_2.flv" -map 0:0 -map 0:1
-ss 0.00 -vcodec mpeg4 -r 24.000000 -padtop 40 -padbottom 40 -s 320x240 -b 15000
00 -aspect 1:1 -acodec libfaac -ab 128000 -ar 48000 -ac 2 -f mp4 -threads 3 "C:\
Documents and Settings\Rakesh\Desktop\Japanese housewife is vulnerable_2.mp4"
FFmpeg version r21343-www.DVDVideoSoft.com, Copyright (c) 2000-2010 Fabrice Bell
ard, et al.
built on Feb 2 2010 17:23:32 with gcc 4.2.4
libavutil 50. 7. 0 / 50. 7. 0
libavcodec 52.48. 0 / 52.48. 0
libavformat 52.47. 0 / 52.47. 0
libavdevice 52. 2. 0 / 52. 2. 0
libavfilter 1.17. 0 / 1.17. 0
libswscale 0. 8. 0 / 0. 8. 0
libpostproc 51. 2. 0 / 51. 2. 0
[flv @ 0xa70050]invalid stream
[flv @ 0xa70050]Estimating duration from bitrate, this may be inaccurate
Seems stream 0 codec frame rate differs from container frame rate: 1000.00 (1000
/1) -> 25.00 (25/1)
Input #0, flv, from 'D:\games\Counter Strike\New Folde\Japanese housewife is vul
nerable_2.flv':
Duration: 00:18:29.56, start: 253.920000, bitrate: 56 kb/s
Stream #0.0: Video: vp6f, yuv420p, 640x480, 25 tbr, 1k tbn, 1k tbc
Stream #0.1: Audio: mp3, 22050 Hz, 1 channels, s16, 56 kb/s
Output #0, mp4, to 'C:\Documents and Settings\Rakesh\Desktop\Japanese housewife
is vulnerable_2.mp4':
Stream #0.0: Video: mpeg4, yuv420p, 320x320 [PAR 1:1 DAR 1:1], q=2-31, 1500
kb/s, 24 tbn, 24 tbc
Stream #0.1: Audio: aac, 48000 Hz, 2 channels, s16, 128 kb/s
Stream mapping:
Stream #0.0 -> #0.0
Stream #0.1 -> #0.1
Press [q] to stop encoding
frame= 36 fps= 0 q=2.0 size= 151kB time=1.37 bitrate= 906.2kbits/s dup=0
[VC] Convert Success
drop=1

====== Assembly FreeVideoToSamsungPhonesConverter, ver. 1.0.4.223 started 2/24/2


011 ======
3:08:44 PM.409|01|DBG|Enter Controller()
3:08:44 PM.409|01|DBG|propMan['AppPath'] = C:\Program Files\DVDVideoSoft\Free Vi
deo to Samsung Phones Converter\
3:08:44 PM.409|01|DBG|before DvsMain.InitializeComponent()
3:08:44 PM.409|01|DBG|==> DvsMain.ctor
3:08:44 PM.487|01|DBG|Code objects listing: AVConverter[DVDVideoSoft.AVConverter
.AVConverterImpl], PresetEditor[DVDVideoSoft.PresetEditor.PresetEditor], TagWrit
er[DVDVideoSoft.AVConverter.MediaTagsWriter],
3:08:44 PM.518|01|DBG|==> DvsMain::Init
3:08:44 PM.518|01|DBG|<== Init (base.Init has returned)
3:08:44 PM.534|01|DBG|==> Init
3:08:44 PM.550|01|DBG|<== Main_Load
3:08:44 PM.565|01|DBG|SetCulture() --- en-US
3:08:44 PM.722|01|DBG|==> Main_Load
3:08:44 PM.940|01|DBG|Try to CheckForUpdates()
3:09:18 PM.675|01|INF|AVConverter code object created (DVDVideoSoft.AVConverter.
dll/DVDVideoSoft.AVConverter.AVConverterImpl)
3:09:18 PM.675|01|INF|TagWriter code object created (DVDVideoSoft.AVConverter.dl
l/DVDVideoSoft.AVConverter.MediaTagsWriter)
3:09:18 PM.690|01|DBG|<== Open //D:\games\Counter Strike\New Folde\Dad taking ca
re of son_s girlbitch - RedTube - Free Teens Porn Videos.flv
3:09:18 PM.722|01|DBG|==> Open
3:09:28 PM.878|01|DBG|<== Open //D:\games\Counter Strike\New Folde\Cheating girl
friend caught on hidden cam.flv
3:09:28 PM.909|01|DBG|==> Open
3:09:48 PM.206|01|DBG|<== Open //D:\games\Counter Strike\New Folde\uns19a.avi
3:09:48 PM.503|01|DBG|==> Open
3:09:53 PM.737|01|DBG|convertButton_Click()
3:09:53 PM.737|01|DBG|Conversion items (output file names):
3:09:53 PM.737|01|DBG| C:\Documents and Settings\Rakesh\My Documents\DV
DVideoSoft\FreeVideoToSamsungPhonesConverter\Dad taking care of son_s girlbitch
- RedTube - Free Teens Porn Videos.mp4
3:09:53 PM.737|01|DBG| C:\Documents and Settings\Rakesh\My Documents\DV
DVideoSoft\FreeVideoToSamsungPhonesConverter\Cheating girlfriend caught on hidde
n cam.mp4
3:09:53 PM.737|01|DBG| C:\Documents and Settings\Rakesh\My Documents\DV
DVideoSoft\FreeVideoToSamsungPhonesConverter\uns19a.mp4
3:09:53 PM.737|01|DBG|<== Convert()
3:09:53 PM.737|01|INF|Preset: MPEG4 240x320, 1.5 Mbps; AAC 128 Kbps, 48 kHz / Sa
msung Corby,Freeform 2,Renown,Sway,Genio Touch,Strive,Flight,BlackJack II,BlackJ
ack,Intrepid
3:09:53 PM.753|01|DBG|==> Convert()
3:11:03 PM.253|03|DBG|converter_itemProcessedEvent()
3:12:14 PM.518|03|DBG|converter_itemProcessedEvent()
3:35:14 PM.206|03|DBG|converter_itemProcessedEvent()
3:35:14 PM.268|01|DBG|converter_completedEvent()
3:35:14 PM.268|01|INF|Conversion was completed successfully
4:01:55 PM.034|01|DBG|DvsMain.Dispose(True)
_OK
[VC] Set output video format, input stream id: 0, id: 0, index: 0, format type:
0, width: 1073742144, height: 240, bit rate: 1500000, frame rate: 24.000000, pix
el format: 0, native format type: 0.
[VC] Set output audio format, input stream id: 1, id: 0, index: 0, format type:
0, bit rate: 128000, sample rate: 48000, channels: 2, sample format: 0, native f
ormat type: 0.
[VC] [v09.06.2010] Save C:\Documents and Settings\Rakesh\My Documents\DVDVideoSo
ft\FreeVideoToSamsungPhonesConverter\Dad taking care of son_s girlbitch - RedTub
e - Free Teens Porn Videos.mp4
[VC] Input audio and video streams: 1, 1. Extended output audio and video stream
s: 1, 1
[VC] Extended regime to convert: yes
[VC] SameVideoQualityAsSource: 0
[VC] OutputVideoFormat: 1, 0, 320, 240, 24.000000, 1500000
[VC] OutputAudioFormat: 0, 128000, 48000, 2
[VC] OutTimeInterval: 0.000000, -1.000000
[VC] Corrected videoOutputWidth: 320, videoOutputHeight: 214
"C:\Program Files\Common Files\DVDVideoSoft\Dll\\ffmpeg.exe" -y -i "D:\games\Cou
nter Strike\New Folde\Dad taking care of son_s girlbitch - RedTube - Free Teens
Porn Videos.flv" -map 0:0 -map 0:1 -ss 0.00 -vcodec mpeg4 -r 24.000000 -padtop 1
2 -padbottom 14 -s 320x214 -b 1500000 -aspect 4:3 -acodec libfaac -ab 128000 -ar
48000 -ac 2 -f mp4 -threads 3 "C:\Documents and Settings\Rakesh\My Documents\DV
DVideoSoft\FreeVideoToSamsungPhonesConverter\Dad taking care of son_s girlbitch
- RedTube - Free Teens Porn Videos.mp4"
FFmpeg version r21343-www.DVDVideoSoft.com, Copyright (c) 2000-2010 Fabrice Bell
ard, et al.
built on Feb 2 2010 17:23:32 with gcc 4.2.4
libavutil 50. 7. 0 / 50. 7. 0
libavcodec 52.48. 0 / 52.48. 0
libavformat 52.47. 0 / 52.47. 0
libavdevice 52. 2. 0 / 52. 2. 0
libavfilter 1.17. 0 / 1.17. 0
libswscale 0. 8. 0 / 0. 8. 0
libpostproc 51. 2. 0 / 51. 2. 0
[flv @ 0xa70050]Estimating duration from bitrate, this may be inaccurate
Seems stream 0 codec frame rate differs from container frame rate: 1000.00 (1000
/1) -> 29.97 (30000/1001)
Input #0, flv, from 'D:\games\Counter Strike\New Folde\Dad taking care of son_s
girlbitch - RedTube - Free Teens Porn Videos.flv':
Metadata:
hasKeyframes : true
audiodatarate : 64
hasVideo : true
stereo : true
canSeekToEnd : true
framerate : 30
audiosamplerate : 44000
videocodecid : 4
datasize : 10753704
lasttimestamp : 194
audiosamplesize : 16
audiosize : 1644751
hasAudio : true
audiodelay : 0
videosize : 9107039
metadatacreator : inlet media FLVTool2 v1.0.6 - http://www.inlet-media.de/fl
vtool2
lastkeyframetimestamp: 194
height : 389
filesize : 10806813
hasMetadata : true
audiocodecid : 2
videodatarate : 372
duration : 194
hasCuePoints : false
width : 584
Duration: 00:03:14.49, start: 0.000000, bitrate: 444 kb/s
Stream #0.0: Video: vp6f, yuv420p, 584x389, 380 kb/s, 29.97 tbr, 1k tbn, 1k
tbc
Stream #0.1: Audio: mp3, 44100 Hz, 2 channels, s16, 64 kb/s
Output #0, mp4, to 'C:\Documents and Settings\Rakesh\My Documents\DVDVideoSoft\F
reeVideoToSamsungPhonesConverter\Dad taking care of son_s girlbitch - RedTube -
Free Teens Porn Videos.mp4':
Stream #0.0: Video: mpeg4, yuv420p, 320x240 [PAR 1:1 DAR 4:3], q=2-31, 1500
kb/s, 24 tbn, 24 tbc
Stream #0.1: Audio: aac, 48000 Hz, 2 channels, s16, 128 kb/s
Stream mapping:
Stream #0.0 -> #0.0
Stream #0.1 -> #0.1
Press [q] to stop encoding
frame= 41 fps= 0 q=2.0 size= 62kB time=1.62 bitrate= 311.7kbits/s dup=0
[VC] Convert Success
drop=10

[VC] [v08.02.2010] In Open(D:\games\Counter Strike\New Folde\Cheating girlfriend


caught on hidden cam.flv)
[VC] FileFormat: flv, 236.933000
[VC] Video: vp6f, 337601, 640x480, 1000.000000
[VC] Audio: mp3, 16000, 11025, 1
[VC] Title: Artist: Album: Year: 0 Track: 0
[VC] Out Open = S_OK
[VC] Set output video format, input stream id: 0, id: 0, index: 0, format type:
0, width: 1073742144, height: 240, bit rate: 1500000, frame rate: 24.000000, pix
el format: 0, native format type: 0.
[VC] Set output audio format, input stream id: 1, id: 0, index: 0, format type:
0, bit rate: 128000, sample rate: 48000, channels: 2, sample format: 0, native f
ormat type: 0.
[VC] [v09.06.2010] Save C:\Documents and Settings\Rakesh\My Documents\DVDVideoSo
ft\FreeVideoToSamsungPhonesConverter\Cheating girlfriend caught on hidden cam.mp
4
[VC] Input audio and video streams: 1, 1. Extended output audio and video stream
s: 1, 1
[VC] Extended regime to convert: yes
[VC] SameVideoQualityAsSource: 0
[VC] OutputVideoFormat: 1, 0, 320, 240, 24.000000, 1500000
[VC] OutputAudioFormat: 0, 128000, 48000, 2
[VC] OutTimeInterval: 0.000000, -1.000000
[VC] Corrected videoOutputWidth: 320, videoOutputHeight: 240
"C:\Program Files\Common Files\DVDVideoSoft\Dll\\ffmpeg.exe" -y -i "D:\games\Cou
nter Strike\New Folde\Cheating girlfriend caught on hidden cam.flv" -map 0:0 -ma
p 0:1 -ss 0.00 -vcodec mpeg4 -r 24.000000 -s 320x240 -b 1500000 -aspect 4:3 -aco
dec libfaac -ab 128000 -ar 48000 -ac 2 -f mp4 -threads 3 "C:\Documents and Setti
ngs\Rakesh\My Documents\DVDVideoSoft\FreeVideoToSamsungPhonesConverter\Cheating
girlfriend caught on hidden cam.mp4"
FFmpeg version r21343-www.DVDVideoSoft.com, Copyright (c) 2000-2010 Fabrice Bell
ard, et al.
built on Feb 2 2010 17:23:32 with gcc 4.2.4
libavutil 50. 7. 0 / 50. 7. 0
libavcodec 52.48. 0 / 52.48. 0
libavformat 52.47. 0 / 52.47. 0
libavdevice 52. 2. 0 / 52. 2. 0
libavfilter 1.17. 0 / 1.17. 0
libswscale 0. 8. 0 / 0. 8. 0
libpostproc 51. 2. 0 / 51. 2. 0
[flv @ 0xa70050]Estimating duration from bitrate, this may be inaccurate
Seems stream 0 codec frame rate differs from container frame rate: 1000.00 (1000
/1) -> 15.00 (15/1)
Input #0, flv, from 'D:\games\Counter Strike\New Folde\Cheating girlfriend caugh
t on hidden cam.flv':
Metadata:
metadatacreator : Yet Another Metadata Injector for FLV - Version 1.4
hasKeyframes : true
hasVideo : true
hasAudio : true
hasMetadata : true
canSeekToEnd : true
duration : 237
datasize : 10634726
videosize : 10064300
videocodecid : 4
width : 640
height : 480
framerate : 25
videodatarate : 330
audiosize : 528398
audiocodecid : 2
audiosamplerate : 11000
audiosamplesize : 16
stereo : false
audiodatarate : 16
filesize : 10636311
lasttimestamp : 237
lastkeyframetimestamp: 237
lastkeyframelocation: 10627457
Duration: 00:03:56.93, start: 0.000000, bitrate: 353 kb/s
Stream #0.0: Video: vp6f, yuv420p, 640x480, 337 kb/s, 15 tbr, 1k tbn, 1k tbc
Stream #0.1: Audio: mp3, 11025 Hz, 1 channels, s16, 16 kb/s
Output #0, mp4, to 'C:\Documents and Settings\Rakesh\My Documents\DVDVideoSoft\F
reeVideoToSamsungPhonesConverter\Cheating girlfriend caught on hidden cam.mp4':
Stream #0.0: Video: mpeg4, yuv420p, 320x240 [PAR 1:1 DAR 4:3], q=2-31, 1500
kb/s, 24 tbn, 24 tbc
Stream #0.1: Audio: aac, 48000 Hz, 2 channels, s16, 128 kb/s
Stream mapping:
Stream #0.0 -> #0.0
Stream #0.1 -> #0.1
Press [q] to stop encoding
frame= 69 32 fps= 680 q=2.0 size= 202kB
114kB time=3.63 bitrate= 455.8kbits/s
time=1.96 476.8kbits/s dup=0
frame= 108 fps= 71 q=2.0 size=
drop=7 290kB time=5.21 bitrate= 456.5kbits/s dup=0
frame= 141 fps= 70 q=2.0 size=
drop=16 394kB time=7.30 bitrate= 442.9kbits/s dup=0
frame= 179 fps= 71 q=2.0 size=
drop=17 478kB time=8.96 bitrate= 437.3kbits/s dup=0
frame= 219 fps= 73 q=2.0 size=
drop=26 572kB time=10.58 bitrate= 442.7kbits/s dup=0
frame=
drop=36259 fps= 74 q=2.0 size= 653kB time=12.25 bitrate= 436.9kbits/s dup=0
frame=
drop=46298 fps= 74 q=2.0 size= 737kB time=13.93 bitrate= 433.3kbits/s dup=0
frame=
drop=56338 fps= 75 q=2.0 size= 825kB time=15.59 bitrate= 433.3kbits/s dup=0
frame=
drop=65377 fps= 75 q=2.0 size= 917kB time=17.22 bitrate= 436.3kbits/s dup=0
frame=
drop=75417 fps= 76 q=2.0 size= 1002kB time=18.88 bitrate= 434.9kbits/s dup=0
frame=
drop=84457 fps= 76 q=1.6 size= 1086kB time=20.50 bitrate= 434.1kbits/s dup=0
frame=
drop=94497 fps= 76 q=2.0 size= 1178kB time=22.19 bitrate= 435.1kbits/s dup=0
frame=
drop=104536 fps= 76 q=2.0 size= 1263kB time=23.85 bitrate= 434.0kbits/s dup=0
frame=
drop=114576 fps= 77 q=2.0 size= 1348kB time=25.47 bitrate= 433.7kbits/s dup=0
frame=
drop=124616 fps= 77 q=2.0 size= 1441kB time=27.14 bitrate= 435.1kbits/s dup=0
frame=
drop=134655 fps= 77 q=2.0 size= 1524kB time=28.76 bitrate= 434.0kbits/s dup=0
frame=
drop=144694 fps= 77 q=2.0 size= 1613kB time=30.44 bitrate= 434.1kbits/s dup=0
frame=
drop=154733 fps= 77 q=1.6 size= 1714kB time=32.11 bitrate= 437.2kbits/s dup=0
frame=
drop=163770 fps= 77 q=2.0 size= 1820kB time=33.73 bitrate= 442.2kbits/s dup=0
frame=
drop=170807 fps= 77 q=2.0 size= 1942kB time=35.39 bitrate= 449.4kbits/s dup=0
frame=
drop=178842 fps= 76 q=2.0 size= 2054kB time=37.33 bitrate= 450.8kbits/s dup=0
frame=
drop=181880 fps= 76 q=2.0 size= 2187kB time=38.95 bitrate= 460.0kbits/s dup=0
frame=
drop=190916 fps= 76 q=2.0 size= 2293kB time=40.73 bitrate= 461.3kbits/s dup=0
frame=
drop=196952 fps= 76 q=2.0 size= 2425kB time=42.50 bitrate= 467.5kbits/s dup=0
frame=
drop=201985 fps= 76 q=1.6 size= 2539kB time=44.39 bitrate= 468.5kbits/s dup=0
frame=
drop=205
1016 fps= 75 q=2.0 size= 2691kB time=46.42 bitrate= 474.9kbits/s dup=0
frame=
drop=205
1048 fps= 75 q=2.0 size= 2840kB time=48.36 bitrate= 481.0kbits/s dup=0
frame=
drop=205
1080 fps= 74 q=2.0 size= 2957kB time=50.39 bitrate= 480.8kbits/s dup=0
frame=
drop=205
1115 fps= 74 q=2.0 size= 3074kB time=52.12 bitrate= 483.1kbits/s dup=0
frame=
drop=210
1148 fps= 74 q=2.0 size= 3202kB time=54.17 bitrate= 484.2kbits/s dup=0
frame=
drop=211
1180 fps= 74 q=2.0 size= 3336kB time=56.15 bitrate= 486.7kbits/s dup=0
frame=
drop=213
1212 fps= 73 q=2.0 size= 3457kB time=58.13 bitrate= 487.2kbits/s dup=0
frame=
drop=213
1244 fps= 73 q=2.0 size= 3585kB time=60.22 bitrate= 487.6kbits/s dup=0
frame=
drop=213
1278 fps= 73 q=2.0 size= 3700kB time=62.14 bitrate= 487.7kbits/s dup=0
frame=
drop=213
1311 fps= 73 q=2.0 size= 3814kB time=64.19 bitrate= 486.7kbits/s dup=0
frame=
drop=215
1344 fps= 73 q=2.0 size= 3912kB time=66.28 bitrate= 483.5kbits/s dup=0
frame=
drop=217
1379 fps= 73 q=2.0 size= 4021kB time=68.10 bitrate= 483.8kbits/s dup=0
frame=
drop=221
1411 fps= 72 q=2.0 size= 4135kB time=70.14 bitrate= 483.0kbits/s dup=0
frame=
drop=225
1446 fps= 72 q=2.0 size= 4239kB time=72.02 bitrate= 482.1kbits/s dup=0
frame=
drop=228
1479 fps= 72 q=2.0 size= 4341kB time=74.07 bitrate= 480.1kbits/s dup=0
frame=
drop=231
1514 fps= 72 q=2.0 size= 4448kB time=75.95 bitrate= 479.8kbits/s dup=0
frame=
drop=238
1553 fps= 72 q=2.0 size= 4549kB time=77.50 bitrate= 480.8kbits/s dup=0
frame=
drop=247
1589 fps= 72 q=2.0 size= 4656kB time=79.13 bitrate= 482.0kbits/s dup=0
frame=
drop=256
1627 fps= 72 q=2.0 size= 4761kB time=80.70 bitrate= 483.3kbits/s dup=0
frame=
drop=265
1661 fps= 72 q=2.0 size= 4873kB time=82.62 bitrate= 483.1kbits/s dup=0
frame=
drop=268
1694 fps= 72 q=2.0 size= 4966kB time=84.67 bitrate= 480.5kbits/s dup=0
frame=
drop=268
1727 fps= 72 q=2.0 size= 5061kB time=86.66 bitrate= 478.4kbits/s dup=0
frame=
drop=269
1760 fps= 72 q=2.0 size= 5158kB time=88.68 bitrate= 476.5kbits/s dup=0
frame=
drop=269
1793 fps= 72 q=2.0 size= 5261kB time=90.67 bitrate= 475.3kbits/s dup=0
frame=
drop=270
1831 fps= 72 q=2.0 size= 5340kB time=92.29 bitrate= 474.0kbits/s dup=0
frame=
drop=279
1866 fps= 72 q=2.0 size= 5448kB time=94.08 bitrate= 474.4kbits/s dup=0
frame=
drop=283
1903 fps= 72 q=2.0 size= 5546kB time=95.68 bitrate= 474.9kbits/s dup=0
frame=
drop=289
1938 fps= 72 q=2.0 size= 5650kB time=97.30 bitrate= 475.7kbits/s dup=0
frame=
drop=297
1974 fps= 72 q=2.0 size= 5756kB time=98.92 bitrate= 476.6kbits/s dup=0
frame=
drop=305
2010 fps= 72 q=2.0 size= 5860kB time=100.61 bitrate= 477.2kbits/s dup=
0frame=
drop=310
2046 fps= 72 q=2.0 size= 5966kB time=102.17 bitrate= 478.3kbits/s dup=
0 drop=317
frame= 2079 fps= 72 q=2.0 size= 6082kB time=104.04 bitrate= 478.9kbits/s dup=
0 drop=319
frame= 2112 fps= 72 q=2.0 size= 6188kB time=105.98 bitrate= 478.3kbits/s dup=
0 drop=320
frame= 2146 fps= 71 q=2.0 size= 6301kB time=107.58 bitrate= 479.8kbits/s dup=
0 drop=327
frame= 2182 fps= 72 q=2.0 size= 6411kB time=109.33 bitrate= 480.4kbits/s dup=
0 drop=330
frame= 2215 fps= 71 q=2.0 size= 6525kB time=111.08 bitrate= 481.2kbits/s dup=
0 drop=337
frame= 2248 fps= 71 q=2.0 size= 6653kB time=113.04 bitrate= 482.1kbits/s dup=
0 drop=339
frame= 2284 fps= 71 q=2.0 size= 6768kB time=114.56 bitrate= 484.0kbits/s dup=
0 drop=348
frame= 2321 fps= 71 q=2.0 size= 6867kB time=116.12 bitrate= 484.5kbits/s dup=
0 drop=357
frame= 2360 fps= 71 q=2.0 size= 6955kB time=117.67 bitrate= 484.2kbits/s dup=
0 drop=366
frame= 2398 fps= 72 q=2.0 size= 7040kB time=119.30 bitrate= 483.5kbits/s dup=
0 drop=376
frame= 2436 fps= 72 q=2.0 size= 7135kB time=120.87 bitrate= 483.5kbits/s dup=
0 drop=385
frame= 2474 fps= 72 q=2.0 size= 7226kB time=122.43 bitrate= 483.5kbits/s dup=
0 drop=395
frame= 2512 fps= 72 q=2.0 size= 7319kB time=124.01 bitrate= 483.5kbits/s dup=
0 drop=404
frame= 2551 fps= 72 q=2.0 size= 7398kB time=125.63 bitrate= 482.4kbits/s dup=
0 drop=414
frame= 2590 fps= 72 q=2.0 size= 7478kB time=127.30 bitrate= 481.3kbits/s dup=
0 drop=424
frame= 2629 fps= 72 q=1.6 size= 7562kB time=128.92 bitrate= 480.5kbits/s dup=
0 drop=434
frame= 2668 fps= 72 q=2.0 size= 7652kB time=130.54 bitrate= 480.2kbits/s dup=
0 drop=443
frame= 2707 fps= 72 q=2.0 size= 7734kB time=132.20 bitrate= 479.2kbits/s dup=
0 drop=453
frame= 2746 fps= 72 q=2.0 size= 7815kB time=133.82 bitrate= 478.4kbits/s dup=
0 drop=463
frame= 2784 fps= 72 q=2.0 size= 7925kB time=135.34 bitrate= 479.7kbits/s dup=
0 drop=472
frame= 2821 fps= 72 q=1.6 size= 8023kB time=136.92 bitrate= 480.1kbits/s dup=
0 drop=482
frame= 2859 fps= 72 q=2.0 size= 8124kB time=138.54 bitrate= 480.4kbits/s dup=
0 drop=491
frame= 2898 fps= 72 q=2.0 size= 8207kB time=140.10 bitrate= 479.9kbits/s dup=
0 drop=501
frame= 2936 fps= 72 q=2.0 size= 8299kB time=141.76 bitrate= 479.6kbits/s dup=
0 drop=511
frame= 2974 fps= 73 q=2.0 size= 8411kB time=143.34 bitrate= 480.7kbits/s dup=
0 drop=520
frame= 3012 fps= 73 q=2.0 size= 8519kB time=144.85 bitrate= 481.8kbits/s dup=
0 drop=529
frame= 3049 fps= 73 q=1.6 size= 8630kB time=146.47 bitrate= 482.6kbits/s dup=
0 drop=539
frame= 3087 fps= 73 q=2.0 size= 8746kB time=148.03 bitrate= 484.0kbits/s dup=
0 drop=548
frame= 3125 fps= 73 q=2.0 size= 8852kB time=149.61 bitrate= 484.7kbits/s dup=
0 drop=557
frame= 3163 fps= 73 q=2.0 size= 8972kB time=151.23 bitrate= 486.0kbits/s dup=
0 drop=566
frame= 3202 fps= 73 q=2.0 size= 9078kB time=152.79 bitrate= 486.7kbits/s dup=
0 drop=576
frame= 3240 fps= 73 q=2.0 size= 9180kB time=154.47 bitrate= 486.8kbits/s dup=
0 drop=586
frame= 3280 fps= 73 q=2.0 size= 9291kB time=156.03 bitrate= 487.8kbits/s dup=
0 drop=595
frame= 3318 fps= 73 q=2.0 size= 9383kB time=157.76 bitrate= 487.2kbits/s dup=
0 drop=605
frame= 3357 fps= 73 q=2.0 size= 9496kB time=159.38 bitrate= 488.1kbits/s dup=
0 drop=614
frame= 3396 fps= 73 q=2.0 size= 9590kB time=161.00 bitrate= 487.9kbits/s dup=
0 drop=623
frame= 3434 fps= 73 q=2.0 size= 9683kB time=162.62 bitrate= 487.7kbits/s dup=
0 drop=633
frame= 3472 fps= 73 q=2.0 size= 9796kB time=164.33 bitrate= 488.3kbits/s dup=
0 drop=641
frame= 3509 fps= 73 q=2.0 size= 9896kB time=166.02 bitrate= 488.3kbits/s dup=
0 drop=648
frame= 3546 fps= 73 q=2.0 size= 9995kB time=167.64 bitrate= 488.4kbits/s dup=
0 drop=657
frame= 3584 fps= 73 q=2.0 size= 10097kB time=169.26 bitrate= 488.7kbits/s dup=
0 drop=666
frame= 3620 fps= 73 q=2.0 size= 10215kB time=170.97 bitrate= 489.5kbits/s dup=
0 drop=672
frame= 3656 fps= 73 q=2.0 size= 10340kB time=172.80 bitrate= 490.2kbits/s dup=
0 drop=677
frame= 3692 fps= 73 q=2.0 size= 10466kB time=174.49 bitrate= 491.4kbits/s dup=
0 drop=684
frame= 3727 fps= 73 q=2.0 size= 10580kB time=176.36 bitrate= 491.5kbits/s dup=
0 drop=688
frame= 3763 fps= 73 q=2.0 size= 10694kB time=178.24 bitrate= 491.5kbits/s dup=
0 drop=692
frame= 3799 fps= 73 q=2.0 size= 10814kB time=180.07 bitrate= 492.0kbits/s dup=
0 drop=694
frame= 3833 fps= 73 q=2.0 size= 10940kB time=181.99 bitrate= 492.4kbits/s dup=
0 drop=697
frame= 3866 fps= 73 q=2.0 size= 11058kB time=184.08 bitrate= 492.1kbits/s dup=
0 drop=698
frame= 3901 fps= 73 q=1.6 size= 11163kB time=185.96 bitrate= 491.7kbits/s dup=
0 drop=701
frame= 3934 fps= 73 q=2.0 size= 11276kB time=187.80 bitrate= 491.9kbits/s dup=
0 drop=706
frame= 3969 fps= 73 q=2.0 size= 11383kB time=189.57 bitrate= 491.9kbits/s dup=
0 drop=712
frame= 4003 fps= 73 q=2.0 size= 11491kB time=191.40 bitrate= 491.8kbits/s dup=
0 drop=715
frame= 4039 fps= 73 q=2.0 size= 11599kB time=193.02 bitrate= 492.3kbits/s dup=
0 drop=723
frame= 4073 fps= 73 q=2.0 size= 11710kB time=194.79 bitrate= 492.5kbits/s dup=
0 drop=727
frame= 4108 fps= 73 q=2.0 size= 11825kB time=196.63 bitrate= 492.7kbits/s dup=
0 drop=730
frame= 4143 fps= 73 q=2.0 size= 11931kB time=198.46 bitrate= 492.5kbits/s dup=
0 drop=734
frame= 4179 fps= 73 q=2.0 size= 12028kB time=200.17 bitrate= 492.3kbits/s dup=
0 drop=742
frame= 4214 fps= 73 q=2.0 size= 12135kB time=201.96 bitrate= 492.2kbits/s dup=
0frame=
drop=746
4252 fps= 73 q=2.0 size= 12237kB time=203.58 bitrate= 492.4kbits/s dup=
0 drop=755
frame= 4289 fps= 73 q=2.0 size= 12332kB time=205.14 bitrate= 492.5kbits/s dup=
0 drop=765
frame= 4327 fps= 73 q=2.0 size= 12431kB time=206.72 bitrate= 492.6kbits/s dup=
0 drop=774
frame= 4365 fps= 73 q=2.0 size= 12523kB time=208.23 bitrate= 492.7kbits/s dup=
0 drop=784
frame= 4402 fps= 73 q=2.0 size= 12621kB time=209.83 bitrate= 492.7kbits/s dup=
0 drop=792
frame= 4439 fps= 73 q=2.0 size= 12711kB time=211.46 bitrate= 492.4kbits/s dup=
0 drop=802
frame= 4477 fps= 73 q=1.6 size= 12799kB time=213.03 bitrate= 492.2kbits/s dup=
0 drop=811
frame= 4514 fps= 73 q=2.0 size= 12909kB time=214.59 bitrate= 492.8kbits/s dup=
0 drop=819
frame= 4550 fps= 73 q=2.0 size= 13021kB time=216.17 bitrate= 493.4kbits/s dup=
0 drop=828
frame= 4586 fps= 73 q=2.0 size= 13126kB time=217.69 bitrate= 494.0kbits/s dup=
0 drop=837
frame= 4623 fps= 73 q=2.0 size= 13227kB time=219.20 bitrate= 494.3kbits/s dup=
0 drop=846
frame= 4659 fps= 73 q=2.0 size= 13334kB time=220.82 bitrate= 494.6kbits/s dup=
0 drop=855
frame= 4697 fps= 73 q=2.0 size= 13429kB time=222.34 bitrate= 494.8kbits/s dup=
0 drop=864
frame= 4731 fps= 73 q=2.0 size= 13537kB time=224.15 bitrate= 494.7kbits/s dup=
0 drop=867
frame= 4768 fps= 73 q=2.0 size= 13642kB time=225.73 bitrate= 495.1kbits/s dup=
0 drop=877
frame= 4804 fps= 73 q=2.0 size= 13734kB time=227.46 bitrate= 494.6kbits/s dup=
0 drop=884
frame= 4841 fps= 73 q=2.0 size= 13821kB time=228.97 bitrate= 494.5kbits/s dup=
0 drop=893
frame= 4878 fps= 73 q=2.0 size= 13907kB time=230.53 bitrate= 494.2kbits/s dup=
0 drop=902
frame= 4915 fps= 73 q=2.0 size= 13992kB time=232.11 bitrate= 493.9kbits/s dup=
0 drop=912
frame= 4953 fps= 73 q=2.0 size= 14076kB time=233.66 bitrate= 493.5kbits/s dup=
0 drop=921
frame= 4990 fps= 73 q=2.0 size= 14160kB time=235.24 bitrate= 493.1kbits/s dup=
0 drop=930
frame= 5027 fps= 73 q=2.0 size= 14240kB time=236.80 bitrate= 492.6kbits/s dup=
0 drop=940
frame= 5030 fps= 73 q=2.0 Lsize= 14388kB time=236.93 bitrate= 497.5kbits/s dup
=0 drop=941
video:11963kB audio:2289kB global headers:0kB muxing overhead 0.958444%
[VC] Convert Success

[VC] [v08.02.2010] In Open(D:\games\Counter Strike\New Folde\uns19a.avi)


[VC] FileFormat: avi, 4645.278612
[VC] Video: mpeg4, 0, 512x384, 29.979414
[VC] Audio: mp3, 128000, 48000, 2
[VC] Title: Artist: Album: Year: 0 Track: 0
[VC] Out Open = S_OK
[VC] Set output video format, input stream id: 0, id: 0, index: 0, format type:
0, width: 1073742144, height: 240, bit rate: 1500000, frame rate: 24.000000, pix
el format: 0, native format type: 0.
[VC] Set output audio format, input stream id: 1, id: 0, index: 0, format type:
0, bit rate: 128000, sample rate: 48000, channels: 2, sample format: 0, native f
ormat type: 0.
[VC] [v09.06.2010] Save C:\Documents and Settings\Rakesh\My Documents\DVDVideoSo
ft\FreeVideoToSamsungPhonesConverter\uns19a.mp4
[VC] Input audio and video streams: 1, 1. Extended output audio and video stream
s: 1, 1
[VC] Extended regime to convert: yes
[VC] SameVideoQualityAsSource: 0
[VC] OutputVideoFormat: 1, 0, 320, 240, 24.000000, 1500000
[VC] OutputAudioFormat: 0, 128000, 48000, 2
[VC] OutTimeInterval: 0.000000, -1.000000
[VC] Corrected videoOutputWidth: 320, videoOutputHeight: 240
"C:\Program Files\Common Files\DVDVideoSoft\Dll\\ffmpeg.exe" -y -i "D:\games\Cou
nter Strike\New Folde\uns19a.avi" -map 0:0 -map 0:1 -ss 0.00 -vcodec mpeg4 -r 24
.000000 -s 320x240 -b 1500000 -aspect 4:3 -acodec libfaac -ab 128000 -ar 48000 -
ac 2 -f mp4 -threads 3 "C:\Documents and Settings\Rakesh\My Documents\DVDVideoSo
ft\FreeVideoToSamsungPhonesConverter\uns19a.mp4"
FFmpeg version r21343-www.DVDVideoSoft.com, Copyright (c) 2000-2010 Fabrice Bell
ard, et al.
built on Feb 2 2010 17:23:32 with gcc 4.2.4
libavutil 50. 7. 0 / 50. 7. 0
libavcodec 52.48. 0 / 52.48. 0
libavformat 52.47. 0 / 52.47. 0
libavdevice 52. 2. 0 / 52. 2. 0
libavfilter 1.17. 0 / 1.17. 0
libswscale 0. 8. 0 / 0. 8. 0
libpostproc 51. 2. 0 / 51. 2. 0
[NULL @ 0x3ffa60]Invalid and inefficient vfw-avi packed B frames detected
Seems stream 0 codec frame rate differs from container frame rate: 29.98 (65535/
2186) -> 29.97 (2997/100)
Input #0, avi, from 'D:\games\Counter Strike\New Folde\uns19a.avi':
Duration: 01:17:25.27, start: 0.000000, bitrate: 1263 kb/s
Stream #0.0: Video: mpeg4, yuv420p, 512x384 [PAR 1:1 DAR 4:3], 29.97 tbr, 29
.97 tbn, 29.98 tbc
Stream #0.1: Audio: mp3, 48000 Hz, 2 channels, s16, 128 kb/s
Output #0, mp4, to 'C:\Documents and Settings\Rakesh\My Documents\DVDVideoSoft\F
reeVideoToSamsungPhonesConverter\uns19a.mp4':
Stream #0.0: Video: mpeg4, yuv420p, 320x240 [PAR 1:1 DAR 4:3], q=2-31, 1500
kb/s, 24 tbn, 24 tbc
Stream #0.1: Audio: aac, 48000 Hz, 2 channels, s16, 128 kb/s
Stream mapping:
Stream #0.0 -> #0.0
Stream #0.1 -> #0.1
Press [q] to stop encoding
[mpeg4 @ 0x3ffa60]Invalid and inefficient vfw-avi packed B frames detected
frame= 52 fps= 0 q=1.6 size= 12kB time=2.21 bitrate= 44.2kbits/s dup=0
[VC] Convert Success
drop=13

====== Assembly FreeVideoToSamsungPhonesConverter, ver. 1.0.4.223 started 2/24/2


011 ======
4:09:07 PM.034|01|DBG|Enter Controller()
4:09:07 PM.034|01|DBG|propMan['AppPath'] = C:\Program Files\DVDVideoSoft\Free Vi
deo to Samsung Phones Converter\
4:09:07 PM.034|01|DBG|before DvsMain.InitializeComponent()
4:09:07 PM.050|01|DBG|==> DvsMain.ctor
4:09:07 PM.175|01|DBG|Code objects listing: AVConverter[DVDVideoSoft.AVConverter
.AVConverterImpl], PresetEditor[DVDVideoSoft.PresetEditor.PresetEditor], TagWrit
er[DVDVideoSoft.AVConverter.MediaTagsWriter],
4:09:07 PM.222|01|DBG|==> DvsMain::Init
4:09:07 PM.222|01|DBG|<== Init (base.Init has returned)
4:09:07 PM.237|01|DBG|==> Init
4:09:07 PM.253|01|DBG|<== Main_Load
4:09:07 PM.268|01|DBG|SetCulture() --- en-US
4:09:07 PM.472|01|DBG|==> Main_Load
4:09:07 PM.706|01|DBG|Try to CheckForUpdates()
4:09:18 PM.925|01|INF|AVConverter code object created (DVDVideoSoft.AVConverter.
dll/DVDVideoSoft.AVConverter.AVConverterImpl)
4:09:18 PM.925|01|INF|TagWriter code object created (DVDVideoSoft.AVConverter.dl
l/DVDVideoSoft.AVConverter.MediaTagsWriter)
4:09:18 PM.987|01|DBG|<== Open //D:\games\Counter Strike\New Folde\Dad taking ca
re of son_s girlbitch - RedTube - Free Teens Porn Videos.flv
4:09:19 PM.018|01|DBG|==> Open
4:09:24 PM.737|01|DBG|<== Open //D:\games\Counter Strike\New Folde\Cheating girl
friend caught on hidden cam.flv
4:09:24 PM.768|01|DBG|==> Open
4:11:10 PM.612|01|DBG|<== Open //D:\games\Counter Strike\New Folde\Gorgeous brun
ette filmed fucking.flv
4:11:10 PM.612|01|DBG|==> Open
4:11:22 PM.768|01|INF|PresetEditor code object created (DVDVideoSoft.PresetEdito
r.dll/DVDVideoSoft.PresetEditor.PresetEditor)
4:14:16 PM.643|01|DBG|convertButton_Click()
4:14:16 PM.643|01|DBG|Conversion items (output file names):
4:14:16 PM.643|01|DBG| C:\Documents and Settings\Rakesh\My Documents\DV
DVideoSoft\FreeVideoToSamsungPhonesConverter\Dad taking care of son_s girlbitch
- RedTube - Free Teens Porn Videos.mp4
4:14:16 PM.643|01|DBG| C:\Documents and Settings\Rakesh\My Documents\DV
DVideoSoft\FreeVideoToSamsungPhonesConverter\Cheating girlfriend caught on hidde
n cam.mp4
4:14:16 PM.643|01|DBG| C:\Documents and Settings\Rakesh\My Documents\DV
DVideoSoft\FreeVideoToSamsungPhonesConverter\Gorgeous brunette filmed fucking.mp
4
4:14:16 PM.643|01|DBG|<== Convert()
4:14:16 PM.643|01|INF|Preset: MPEG4 320x240, 64 Kbps; AAC 12 Kbps, 8 kHz / Samsu
ng SGH U800
4:14:16 PM.659|01|DBG|==> Convert()
4:14:17 PM.878|03|ERR|Exception: converter returned DVS_CONVERTER_ERROR_INVALID_
PRESET
4:14:18 PM.753|03|ERR|Exception: converter returned DVS_CONVERTER_ERROR_INVALID_
PRESET
4:14:19 PM.597|03|ERR|Exception: converter returned DVS_CONVERTER_ERROR_INVALID_
PRESET
4:14:19 PM.612|01|DBG|converter_completedEvent()
4:14:19 PM.612|01|ERR|There were errors during conversion: 3 file(s) is failed.
4:14:54 PM.190|01|DBG|DvsMain.Dispose(True)
t rate: 1500000, frame rate: 15.000000, pixel format: 0, native format type: 0.
[VC] Set output audio format, input stream id: 1, id: 0, index: 0, format type:
0, bit rate: 192000, sample rate: 8000, channels: 1, sample format: 0, native fo
rmat type: 0.
[VC] [v09.06.2010] Save C:\Documents and Settings\Rakesh\My Documents\DVDVideoSo
ft\FreeVideoToSamsungPhonesConverter\Dad taking care of son_s girlbitch - RedTub
e - Free Teens Porn Videos.mp4
[VC] Input audio and video streams: 1, 1. Extended output audio and video stream
s: 1, 1
[VC] Extended regime to convert: yes
[VC] SameVideoQualityAsSource: 0
[VC] OutputVideoFormat: 1, 0, 320, 240, 15.000000, 1500000
[VC] OutputAudioFormat: 0, 192000, 8000, 1
[VC] OutTimeInterval: 0.000000, -1.000000
[VC] Corrected videoOutputWidth: 320, videoOutputHeight: 214
"C:\Program Files\Common Files\DVDVideoSoft\Dll\\ffmpeg.exe" -y -i "D:\games\Cou
nter Strike\New Folde\Dad taking care of son_s girlbitch - RedTube - Free Teens
Porn Videos.flv" -map 0:0 -map 0:1 -ss 0.00 -vcodec mpeg4 -r 15.000000 -padtop 1
2 -padbottom 14 -s 320x214 -b 1500000 -aspect 4:3 -acodec libfaac -ab 192000 -ar
8000 -ac 1 -f mp4 -threads 3 "C:\Documents and Settings\Rakesh\My Documents\DVD
VideoSoft\FreeVideoToSamsungPhonesConverter\Dad taking care of son_s girlbitch -
RedTube - Free Teens Porn Videos.mp4"
FFmpeg version r21343-www.DVDVideoSoft.com, Copyright (c) 2000-2010 Fabrice Bell
ard, et al.
built on Feb 2 2010 17:23:32 with gcc 4.2.4
libavutil 50. 7. 0 / 50. 7. 0
libavcodec 52.48. 0 / 52.48. 0
libavformat 52.47. 0 / 52.47. 0
libavdevice 52. 2. 0 / 52. 2. 0
libavfilter 1.17. 0 / 1.17. 0
libswscale 0. 8. 0 / 0. 8. 0
libpostproc 51. 2. 0 / 51. 2. 0
[flv @ 0xa70050]Estimating duration from bitrate, this may be inaccurate
Seems stream 0 codec frame rate differs from container frame rate: 1000.00 (1000
/1) -> 29.97 (30000/1001)
Input #0, flv, from 'D:\games\Counter Strike\New Folde\Dad taking care of son_s
girlbitch - RedTube - Free Teens Porn Videos.flv':
Metadata:
hasKeyframes : true
audiodatarate : 64
hasVideo : true
stereo : true
canSeekToEnd : true
framerate : 30
audiosamplerate : 44000
videocodecid : 4
datasize : 10753704
lasttimestamp : 194
audiosamplesize : 16
audiosize : 1644751
hasAudio : true
audiodelay : 0
videosize : 9107039
metadatacreator : inlet media FLVTool2 v1.0.6 - http://www.inlet-media.de/fl
vtool2
lastkeyframetimestamp: 194
height : 389
filesize : 10806813
hasMetadata : true
audiocodecid : 2
videodatarate : 372
duration : 194
hasCuePoints : false
width : 584
Duration: 00:03:14.49, start: 0.000000, bitrate: 444 kb/s
Stream #0.0: Video: vp6f, yuv420p, 584x389, 380 kb/s, 29.97 tbr, 1k tbn, 1k
tbc
Stream #0.1: Audio: mp3, 44100 Hz, 2 channels, s16, 64 kb/s
[libfaac @ 0xb124a0]libfaac doesn't support this output format!
Output #0, mp4, to 'C:\Documents and Settings\Rakesh\My Documents\DVDVideoSoft\F
reeVideoToSamsungPhonesConverter\Dad taking care of son_s girlbitch - RedTube -
Free Teens Porn Videos.mp4':
Stream #0.0: Video: mpeg4, yuv420p, 320x240 [PAR 1:1 DAR 4:3], q=2-31, 1500
kb/s, 90k tbn, 15 tbc
Stream #0.1: Audio: aac, 8000 Hz, 1 channels, s16, 192 kb/s
Stream mapping:
Stream #0.0 -> #0.0
Stream #0.1 -> #0.1
Error while opening encoder for output stream #0.1 - maybe incorrect parameters
such as bit_rate, rate, width or height
[VC] Convert Success

[VC] [v08.02.2010] In Open(D:\games\Counter Strike\New Folde\Cheating girlfriend


caught on hidden cam.flv)
[VC] FileFormat: flv, 236.933000
[VC] Video: vp6f, 337601, 640x480, 1000.000000
[VC] Audio: mp3, 16000, 11025, 1
[VC] Title: Artist: Album: Year: 0 Track: 0
[VC] Out Open = S_OK
[VC] Set output video format, input stream id: 0, id: 0, index: 0, format type:
0, width: 1073742144, height: 240, bit rate: 1500000, frame rate: 15.000000, pix
el format: 0, native format type: 0.
[VC] Set output audio format, input stream id: 1, id: 0, index: 0, format type:
0, bit rate: 192000, sample rate: 8000, channels: 1, sample format: 0, native fo
rmat type: 0.
[VC] [v09.06.2010] Save C:\Documents and Settings\Rakesh\My Documents\DVDVideoSo
ft\FreeVideoToSamsungPhonesConverter\Cheating girlfriend caught on hidden cam.mp
4
[VC] Input audio and video streams: 1, 1. Extended output audio and video stream
s: 1, 1
[VC] Extended regime to convert: yes
[VC] SameVideoQualityAsSource: 0
[VC] OutputVideoFormat: 1, 0, 320, 240, 15.000000, 1500000
[VC] OutputAudioFormat: 0, 192000, 8000, 1
[VC] OutTimeInterval: 0.000000, -1.000000
[VC] Corrected videoOutputWidth: 320, videoOutputHeight: 240
"C:\Program Files\Common Files\DVDVideoSoft\Dll\\ffmpeg.exe" -y -i "D:\games\Cou
nter Strike\New Folde\Cheating girlfriend caught on hidden cam.flv" -map 0:0 -ma
p 0:1 -ss 0.00 -vcodec mpeg4 -r 15.000000 -s 320x240 -b 1500000 -aspect 4:3 -aco
dec libfaac -ab 192000 -ar 8000 -ac 1 -f mp4 -threads 3 "C:\Documents and Settin
gs\Rakesh\My Documents\DVDVideoSoft\FreeVideoToSamsungPhonesConverter\Cheating g
irlfriend caught on hidden cam.mp4"
FFmpeg version r21343-www.DVDVideoSoft.com, Copyright (c) 2000-2010 Fabrice Bell
ard, et al.
built on Feb 2 2010 17:23:32 with gcc 4.2.4
libavutil 50. 7. 0 / 50. 7. 0
libavcodec 52.48. 0 / 52.48. 0
libavformat 52.47. 0 / 52.47. 0
libavdevice 52. 2. 0 / 52. 2. 0
libavfilter 1.17. 0 / 1.17. 0
libswscale 0. 8. 0 / 0. 8. 0
libpostproc 51. 2. 0 / 51. 2. 0
[flv @ 0xa70050]Estimating duration from bitrate, this may be inaccurate
Seems stream 0 codec frame rate differs from container frame rate: 1000.00 (1000
/1) -> 15.00 (15/1)
Input #0, flv, from 'D:\games\Counter Strike\New Folde\Cheating girlfriend caugh
t on hidden cam.flv':
Metadata:
metadatacreator : Yet Another Metadata Injector for FLV - Version 1.4
hasKeyframes : true
hasVideo : true
hasAudio : true
hasMetadata : true
canSeekToEnd : true
duration : 237
datasize : 10634726
videosize : 10064300
videocodecid : 4
width : 640
height : 480
framerate : 25
videodatarate : 330
audiosize : 528398
audiocodecid : 2
audiosamplerate : 11000
audiosamplesize : 16
stereo : false
audiodatarate : 16
filesize : 10636311
lasttimestamp : 237
lastkeyframetimestamp: 237
lastkeyframelocation: 10627457
Duration: 00:03:56.93, start: 0.000000, bitrate: 353 kb/s
Stream #0.0: Video: vp6f, yuv420p, 640x480, 337 kb/s, 15 tbr, 1k tbn, 1k tbc
Stream #0.1: Audio: mp3, 11025 Hz, 1 channels, s16, 16 kb/s
[libfaac @ 0xa95200]libfaac doesn't support this output format!
Output #0, mp4, to 'C:\Documents and Settings\Rakesh\My Documents\DVDVideoSoft\F
reeVideoToSamsungPhonesConverter\Cheating girlfriend caught on hidden cam.mp4':
Stream #0.0: Video: mpeg4, yuv420p, 320x240 [PAR 1:1 DAR 4:3], q=2-31, 1500
kb/s, 90k tbn, 15 tbc
Stream #0.1: Audio: aac, 8000 Hz, 1 channels, s16, 192 kb/s
Stream mapping:
Stream #0.0 -> #0.0
Stream #0.1 -> #0.1
Error while opening encoder for output stream #0.1 - maybe incorrect parameters
such as bit_rate, rate, width or height
[VC] Convert Success

[VC] [v08.02.2010] In Open(D:\games\Counter Strike\New Folde\Gorgeous brunette f


ilmed fucking.flv)
[VC] FileFormat: flv, 599.966000
[VC] Video: vp6f, 321957, 600x470, 1000.000000
[VC] Audio: mp3, 16000, 11025, 1
[VC] Title: Artist: Album: Year: 0 Track: 0
[VC] Out Open = S_OK
[VC] Set output video format, input stream id: 0, id: 0, index: 0, format type:
0, width: 1073742144, height: 240, bit rate: 1500000, frame rate: 15.000000, pix
el format: 0, native format type: 0.
[VC] Set output audio format, input stream id: 1, id: 0, index: 0, format type:
0, bit rate: 192000, sample rate: 8000, channels: 1, sample format: 0, native fo
rmat type: 0.
[VC] [v09.06.2010] Save C:\Documents and Settings\Rakesh\My Documents\DVDVideoSo
ft\FreeVideoToSamsungPhonesConverter\Gorgeous brunette filmed fucking.mp4
[VC] Input audio and video streams: 1, 1. Extended output audio and video stream
s: 1, 1
[VC] Extended regime to convert: yes
[VC] SameVideoQualityAsSource: 0
[VC] OutputVideoFormat: 1, 0, 320, 240, 15.000000, 1500000
[VC] OutputAudioFormat: 0, 192000, 8000, 1
[VC] OutTimeInterval: 0.000000, -1.000000
[VC] Corrected videoOutputWidth: 306, videoOutputHeight: 240
"C:\Program Files\Common Files\DVDVideoSoft\Dll\\ffmpeg.exe" -y -i "D:\games\Cou
nter Strike\New Folde\Gorgeous brunette filmed fucking.flv" -map 0:0 -map 0:1 -s
s 0.00 -vcodec mpeg4 -r 15.000000 -padleft 6 -padright 8 -s 306x240 -b 1500000 -
aspect 4:3 -acodec libfaac -ab 192000 -ar 8000 -ac 1 -f mp4 -threads 3 "C:\Docum
ents and Settings\Rakesh\My Documents\DVDVideoSoft\FreeVideoToSamsungPhonesConve
rter\Gorgeous brunette filmed fucking.mp4"
FFmpeg version r21343-www.DVDVideoSoft.com, Copyright (c) 2000-2010 Fabrice Bell
ard, et al.
built on Feb 2 2010 17:23:32 with gcc 4.2.4
libavutil 50. 7. 0 / 50. 7. 0
libavcodec 52.48. 0 / 52.48. 0
libavformat 52.47. 0 / 52.47. 0
libavdevice 52. 2. 0 / 52. 2. 0
libavfilter 1.17. 0 / 1.17. 0
libswscale 0. 8. 0 / 0. 8. 0
libpostproc 51. 2. 0 / 51. 2. 0
[flv @ 0xa70050]Estimating duration from bitrate, this may be inaccurate
Seems stream 0 codec frame rate differs from container frame rate: 1000.00 (1000
/1) -> 30.00 (30/1)
Input #0, flv, from 'D:\games\Counter Strike\New Folde\Gorgeous brunette filmed
fucking.flv':
Metadata:
metadatacreator : Yet Another Metadata Injector for FLV - Version 1.4
hasKeyframes : true
hasVideo : true
hasAudio : true
hasMetadata : true
canSeekToEnd : true
duration : 600
datasize : 25789504
videosize : 24336287
videocodecid : 4
width : 600
height : 470
framerate : 29
videodatarate : 314
audiosize : 1337885
audiocodecid : 2
audiosamplerate : 11000
audiosamplesize : 16
stereo : false
audiodatarate : 16
filesize : 25792583
lasttimestamp : 600
lastkeyframetimestamp: 600
lastkeyframelocation: 25790698
Duration: 00:09:59.96, start: 0.000000, bitrate: 337 kb/s
Stream #0.0: Video: vp6f, yuv420p, 600x470, 321 kb/s, 30 tbr, 1k tbn, 1k tbc
Stream #0.1: Audio: mp3, 11025 Hz, 1 channels, s16, 16 kb/s
[libfaac @ 0xa95200]libfaac doesn't support this output format!
Output #0, mp4, to 'C:\Documents and Settings\Rakesh\My Documents\DVDVideoSoft\F
reeVideoToSamsungPhonesConverter\Gorgeous brunette filmed fucking.mp4':
Stream #0.0: Video: mpeg4, yuv420p, 320x240 [PAR 1:1 DAR 4:3], q=2-31, 1500
kb/s, 90k tbn, 15 tbc
Stream #0.1: Audio: aac, 8000 Hz, 1 channels, s16, 192 kb/s
Stream mapping:
Stream #0.0 -> #0.0
Stream #0.1 -> #0.1
Error while opening encoder for output stream #0.1 - maybe incorrect parameters
such as bit_rate, rate, width or height
[VC] Convert Success
====== Assembly FreeVideoToSamsungPhonesConverter, ver. 1.0.4.223 started 2/24/2
011 ======
4:15:53 PM.831|01|DBG|Enter Controller()
4:15:53 PM.831|01|DBG|propMan['AppPath'] = C:\Program Files\DVDVideoSoft\Free Vi
deo to Samsung Phones Converter\
4:15:53 PM.831|01|DBG|before DvsMain.InitializeComponent()
4:15:53 PM.831|01|DBG|==> DvsMain.ctor
4:15:53 PM.909|01|DBG|Code objects listing: AVConverter[DVDVideoSoft.AVConverter
.AVConverterImpl], PresetEditor[DVDVideoSoft.PresetEditor.PresetEditor], TagWrit
er[DVDVideoSoft.AVConverter.MediaTagsWriter],
4:15:53 PM.956|01|DBG|==> DvsMain::Init
4:15:53 PM.956|01|DBG|<== Init (base.Init has returned)
4:15:53 PM.972|01|DBG|==> Init
4:15:53 PM.987|01|DBG|<== Main_Load
4:15:54 PM.003|01|DBG|SetCulture() --- en-US
4:15:54 PM.175|01|DBG|==> Main_Load
4:15:54 PM.378|01|DBG|Try to CheckForUpdates()
4:16:16 PM.347|01|INF|AVConverter code object created (DVDVideoSoft.AVConverter.
dll/DVDVideoSoft.AVConverter.AVConverterImpl)
4:16:16 PM.347|01|INF|TagWriter code object created (DVDVideoSoft.AVConverter.dl
l/DVDVideoSoft.AVConverter.MediaTagsWriter)
4:16:16 PM.393|01|DBG|<== Open //D:\games\Counter Strike\New Folde\Cheating girl
friend caught on hidden cam.flv
4:16:16 PM.440|01|DBG|==> Open
4:16:24 PM.393|01|DBG|<== Open //D:\games\Counter Strike\New Folde\Dad taking ca
re of son_s girlbitch - RedTube - Free Teens Porn Videos.flv
4:16:24 PM.409|01|DBG|==> Open
4:16:33 PM.831|01|DBG|<== Open //D:\games\Counter Strike\New Folde\Gorgeous brun
ette filmed fucking.flv
4:16:33 PM.847|01|DBG|==> Open
4:16:58 PM.393|01|DBG|<== Open //D:\games\Counter Strike\New Folde\KoreanTeacher
.wmv
4:16:58 PM.472|01|DBG|==> Open
4:17:06 PM.768|01|DBG|<== Open //D:\games\Counter Strike\New Folde\uns19a.avi
4:17:07 PM.003|01|DBG|==> Open
4:17:10 PM.550|01|DBG|convertButton_Click()
4:17:10 PM.597|01|DBG|Conversion items (output file names):
4:17:10 PM.597|01|DBG| C:\Documents and Settings\Rakesh\My Documents\DV
DVideoSoft\FreeVideoToSamsungPhonesConverter\Cheating girlfriend caught on hidde
n cam(1).mp4
4:17:10 PM.597|01|DBG| C:\Documents and Settings\Rakesh\My Documents\DV
DVideoSoft\FreeVideoToSamsungPhonesConverter\Dad taking care of son_s girlbitch
- RedTube - Free Teens Porn Videos(1).mp4
4:17:10 PM.597|01|DBG| C:\Documents and Settings\Rakesh\My Documents\DV
DVideoSoft\FreeVideoToSamsungPhonesConverter\Gorgeous brunette filmed fucking(1)
.mp4
4:17:10 PM.597|01|DBG| C:\Documents and Settings\Rakesh\My Documents\DV
DVideoSoft\FreeVideoToSamsungPhonesConverter\KoreanTeacher.mp4
4:17:10 PM.597|01|DBG| C:\Documents and Settings\Rakesh\My Documents\DV
DVideoSoft\FreeVideoToSamsungPhonesConverter\uns19a.mp4
4:17:10 PM.597|01|DBG|<== Convert()
4:17:10 PM.597|01|INF|Preset: MPEG4 320x240, 60 Kbps; AAC 12 Kbps, 8 kHz / Samsu
ng SGH U800
4:17:10 PM.612|01|DBG|==> Convert()
4:17:50 PM.003|03|DBG|converter_itemProcessedEvent()
4:18:27 PM.331|03|DBG|converter_itemProcessedEvent()
4:20:14 PM.065|03|DBG|converter_itemProcessedEvent()
4:21:00 PM.081|03|DBG|converter_itemProcessedEvent()
4:30:08 PM.737|03|DBG|converter_itemProcessedEvent()
4:30:08 PM.753|01|DBG|converter_completedEvent()
4:30:08 PM.784|01|INF|Conversion was completed successfully
4:32:05 PM.534|01|DBG|DvsMain.Dispose(True)
frame rate: 15.000000, pixel format: 0, native format type: 0.
[VC] Set output audio format, input stream id: 1, id: 0, index: 0, format type:
0, bit rate: 12000, sample rate: 8000, channels: 1, sample format: 0, native for
mat type: 0.
[VC] [v09.06.2010] Save C:\Documents and Settings\Rakesh\My Documents\DVDVideoSo
ft\FreeVideoToSamsungPhonesConverter\Cheating girlfriend caught on hidden cam(1)
.mp4
[VC] Input audio and video streams: 1, 1. Extended output audio and video stream
s: 1, 1
[VC] Extended regime to convert: yes
[VC] SameVideoQualityAsSource: 0
[VC] OutputVideoFormat: 1, 0, 320, 240, 15.000000, 60000
[VC] OutputAudioFormat: 0, 12000, 8000, 1
[VC] OutTimeInterval: 0.000000, -1.000000
[VC] Corrected videoOutputWidth: 320, videoOutputHeight: 240
"C:\Program Files\Common Files\DVDVideoSoft\Dll\\ffmpeg.exe" -y -i "D:\games\Cou
nter Strike\New Folde\Cheating girlfriend caught on hidden cam.flv" -map 0:0 -ma
p 0:1 -ss 0.00 -vcodec mpeg4 -r 15.000000 -s 320x240 -b 60000 -aspect 4:3 -acode
c libfaac -ab 12000 -ar 8000 -ac 1 -f mp4 -threads 3 "C:\Documents and Settings\
Rakesh\My Documents\DVDVideoSoft\FreeVideoToSamsungPhonesConverter\Cheating girl
friend caught on hidden cam(1).mp4"
FFmpeg version r21343-www.DVDVideoSoft.com, Copyright (c) 2000-2010 Fabrice Bell
ard, et al.
built on Feb 2 2010 17:23:32 with gcc 4.2.4
libavutil 50. 7. 0 / 50. 7. 0
libavcodec 52.48. 0 / 52.48. 0
libavformat 52.47. 0 / 52.47. 0
libavdevice 52. 2. 0 / 52. 2. 0
libavfilter 1.17. 0 / 1.17. 0
libswscale 0. 8. 0 / 0. 8. 0
libpostproc 51. 2. 0 / 51. 2. 0
[flv @ 0xa70050]Estimating duration from bitrate, this may be inaccurate
Seems stream 0 codec frame rate differs from container frame rate: 1000.00 (1000
/1) -> 15.00 (15/1)
Input #0, flv, from 'D:\games\Counter Strike\New Folde\Cheating girlfriend caugh
t on hidden cam.flv':
Metadata:
metadatacreator : Yet Another Metadata Injector for FLV - Version 1.4
hasKeyframes : true
hasVideo : true
hasAudio : true
hasMetadata : true
canSeekToEnd : true
duration : 237
datasize : 10634726
videosize : 10064300
videocodecid : 4
width : 640
height : 480
framerate : 25
videodatarate : 330
audiosize : 528398
audiocodecid : 2
audiosamplerate : 11000
audiosamplesize : 16
stereo : false
audiodatarate : 16
filesize : 10636311
lasttimestamp : 237
lastkeyframetimestamp: 237
lastkeyframelocation: 10627457
Duration: 00:03:56.93, start: 0.000000, bitrate: 353 kb/s
Stream #0.0: Video: vp6f, yuv420p, 640x480, 337 kb/s, 15 tbr, 1k tbn, 1k tbc
Stream #0.1: Audio: mp3, 11025 Hz, 1 channels, s16, 16 kb/s
Output #0, mp4, to 'C:\Documents and Settings\Rakesh\My Documents\DVDVideoSoft\F
reeVideoToSamsungPhonesConverter\Cheating girlfriend caught on hidden cam(1).mp4
':
Stream #0.0: Video: mpeg4, yuv420p, 320x240 [PAR 1:1 DAR 4:3], q=2-31, 60 kb
/s, 15 tbn, 15 tbc
Stream #0.1: Audio: aac, 8000 Hz, 1 channels, s16, 12 kb/s
Stream mapping:
Stream #0.0 -> #0.0
Stream #0.1 -> #0.1
Press [q] to stop encoding[VC] Convert Success

[VC] [v08.02.2010] In Open(D:\games\Counter Strike\New Folde\Dad taking care of


son_s girlbitch - RedTube - Free Teens Porn Videos.flv)
[VC] FileFormat: flv, 194.494000
[VC] Video: vp6f, 380948, 584x389, 1000.000000
[VC] Audio: mp3, 64000, 44100, 2
[VC] Title: Artist: Album: Year: 0 Track: 0
[VC] Out Open = S_OK
[VC] Set output video format, input stream id: 0, id: 0, index: 0, format type:
0, width: 1073742144, height: 240, bit rate: 60000, frame rate: 15.000000, pixel
format: 0, native format type: 0.
[VC] Set output audio format, input stream id: 1, id: 0, index: 0, format type:
0, bit rate: 12000, sample rate: 8000, channels: 1, sample format: 0, native for
mat type: 0.
[VC] [v09.06.2010] Save C:\Documents and Settings\Rakesh\My Documents\DVDVideoSo
ft\FreeVideoToSamsungPhonesConverter\Dad taking care of son_s girlbitch - RedTub
e - Free Teens Porn Videos(1).mp4
[VC] Input audio and video streams: 1, 1. Extended output audio and video stream
s: 1, 1
[VC] Extended regime to convert: yes
[VC] SameVideoQualityAsSource: 0
[VC] OutputVideoFormat: 1, 0, 320, 240, 15.000000, 60000
[VC] OutputAudioFormat: 0, 12000, 8000, 1
[VC] OutTimeInterval: 0.000000, -1.000000
[VC] Corrected videoOutputWidth: 320, videoOutputHeight: 214
"C:\Program Files\Common Files\DVDVideoSoft\Dll\\ffmpeg.exe" -y -i "D:\games\Cou
nter Strike\New Folde\Dad taking care of son_s girlbitch - RedTube - Free Teens
Porn Videos.flv" -map 0:0 -map 0:1 -ss 0.00 -vcodec mpeg4 -r 15.000000 -padtop 1
2 -padbottom 14 -s 320x214 -b 60000 -aspect 4:3 -acodec libfaac -ab 12000 -ar 80
00 -ac 1 -f mp4 -threads 3 "C:\Documents and Settings\Rakesh\My Documents\DVDVid
eoSoft\FreeVideoToSamsungPhonesConverter\Dad taking care of son_s girlbitch - Re
dTube - Free Teens Porn Videos(1).mp4"
FFmpeg version r21343-www.DVDVideoSoft.com, Copyright (c) 2000-2010 Fabrice Bell
ard, et al.
built on Feb 2 2010 17:23:32 with gcc 4.2.4
libavutil 50. 7. 0 / 50. 7. 0
libavcodec 52.48. 0 / 52.48. 0
libavformat 52.47. 0 / 52.47. 0
libavdevice 52. 2. 0 / 52. 2. 0
libavfilter 1.17. 0 / 1.17. 0
libswscale 0. 8. 0 / 0. 8. 0
libpostproc 51. 2. 0 / 51. 2. 0
[flv @ 0xa70050]Estimating duration from bitrate, this may be inaccurate
Seems stream 0 codec frame rate differs from container frame rate: 1000.00 (1000
/1) -> 29.97 (30000/1001)
Input #0, flv, from 'D:\games\Counter Strike\New Folde\Dad taking care of son_s
girlbitch - RedTube - Free Teens Porn Videos.flv':
Metadata:
hasKeyframes : true
audiodatarate : 64
hasVideo : true
stereo : true
canSeekToEnd : true
framerate : 30
audiosamplerate : 44000
videocodecid : 4
datasize : 10753704
lasttimestamp : 194
audiosamplesize : 16
audiosize : 1644751
hasAudio : true
audiodelay : 0
videosize : 9107039
metadatacreator : inlet media FLVTool2 v1.0.6 - http://www.inlet-media.de/fl
vtool2
lastkeyframetimestamp: 194
height : 389
filesize : 10806813
hasMetadata : true
audiocodecid : 2
videodatarate : 372
duration : 194
hasCuePoints : false
width : 584
Duration: 00:03:14.49, start: 0.000000, bitrate: 444 kb/s
Stream #0.0: Video: vp6f, yuv420p, 584x389, 380 kb/s, 29.97 tbr, 1k tbn, 1k
tbc
Stream #0.1: Audio: mp3, 44100 Hz, 2 channels, s16, 64 kb/s
Output #0, mp4, to 'C:\Documents and Settings\Rakesh\My Documents\DVDVideoSoft\F
reeVideoToSamsungPhonesConverter\Dad taking care of son_s girlbitch - RedTube -
Free Teens Porn Videos(1).mp4':
Stream #0.0: Video: mpeg4, yuv420p, 320x240 [PAR 1:1 DAR 4:3], q=2-31, 60 kb
/s, 15 tbn, 15 tbc
Stream #0.1: Audio: aac, 8000 Hz, 1 channels, s16, 12 kb/s
Stream mapping:
Stream #0.0 -> #0.0
Stream #0.1 -> #0.1
Press [q] to stop encoding
frame= 54 fps= 0 q=8.8 size= 44kB time=3.07 bitrate= 118.6kbits/s dup=0
[VC] Convert Success
drop=52
[VC] [v08.02.2010] In Open(D:\games\Counter Strike\New Folde\Gorgeous brunette f
ilmed fucking.flv)
[VC] FileFormat: flv, 599.966000
[VC] Video: vp6f, 321957, 600x470, 1000.000000
[VC] Audio: mp3, 16000, 11025, 1
[VC] Title: Artist: Album: Year: 0 Track: 0
[VC] Out Open = S_OK
[VC] Set output video format, input stream id: 0, id: 0, index: 0, format type:
0, width: 1073742144, height: 240, bit rate: 60000, frame rate: 15.000000, pixel
format: 0, native format type: 0.
[VC] Set output audio format, input stream id: 1, id: 0, index: 0, format type:
0, bit rate: 12000, sample rate: 8000, channels: 1, sample format: 0, native for
mat type: 0.
[VC] [v09.06.2010] Save C:\Documents and Settings\Rakesh\My Documents\DVDVideoSo
ft\FreeVideoToSamsungPhonesConverter\Gorgeous brunette filmed fucking(1).mp4
[VC] Input audio and video streams: 1, 1. Extended output audio and video stream
s: 1, 1
[VC] Extended regime to convert: yes
[VC] SameVideoQualityAsSource: 0
[VC] OutputVideoFormat: 1, 0, 320, 240, 15.000000, 60000
[VC] OutputAudioFormat: 0, 12000, 8000, 1
[VC] OutTimeInterval: 0.000000, -1.000000
[VC] Corrected videoOutputWidth: 306, videoOutputHeight: 240
"C:\Program Files\Common Files\DVDVideoSoft\Dll\\ffmpeg.exe" -y -i "D:\games\Cou
nter Strike\New Folde\Gorgeous brunette filmed fucking.flv" -map 0:0 -map 0:1 -s
s 0.00 -vcodec mpeg4 -r 15.000000 -padleft 6 -padright 8 -s 306x240 -b 60000 -as
pect 4:3 -acodec libfaac -ab 12000 -ar 8000 -ac 1 -f mp4 -threads 3 "C:\Document
s and Settings\Rakesh\My Documents\DVDVideoSoft\FreeVideoToSamsungPhonesConverte
r\Gorgeous brunette filmed fucking(1).mp4"
FFmpeg version r21343-www.DVDVideoSoft.com, Copyright (c) 2000-2010 Fabrice Bell
ard, et al.
built on Feb 2 2010 17:23:32 with gcc 4.2.4
libavutil 50. 7. 0 / 50. 7. 0
libavcodec 52.48. 0 / 52.48. 0
libavformat 52.47. 0 / 52.47. 0
libavdevice 52. 2. 0 / 52. 2. 0
libavfilter 1.17. 0 / 1.17. 0
libswscale 0. 8. 0 / 0. 8. 0
libpostproc 51. 2. 0 / 51. 2. 0
[flv @ 0xa70050]Estimating duration from bitrate, this may be inaccurate
Seems stream 0 codec frame rate differs from container frame rate: 1000.00 (1000
/1) -> 30.00 (30/1)
Input #0, flv, from 'D:\games\Counter Strike\New Folde\Gorgeous brunette filmed
fucking.flv':
Metadata:
metadatacreator : Yet Another Metadata Injector for FLV - Version 1.4
hasKeyframes : true
hasVideo : true
hasAudio : true
hasMetadata : true
canSeekToEnd : true
duration : 600
datasize : 25789504
videosize : 24336287
videocodecid : 4
width : 600
height : 470
framerate : 29
videodatarate : 314
audiosize : 1337885
audiocodecid : 2
audiosamplerate : 11000
audiosamplesize : 16
stereo : false
audiodatarate : 16
filesize : 25792583
lasttimestamp : 600
lastkeyframetimestamp: 600
lastkeyframelocation: 25790698
Duration: 00:09:59.96, start: 0.000000, bitrate: 337 kb/s
Stream #0.0: Video: vp6f, yuv420p, 600x470, 321 kb/s, 30 tbr, 1k tbn, 1k tbc
Stream #0.1: Audio: mp3, 11025 Hz, 1 channels, s16, 16 kb/s
Output #0, mp4, to 'C:\Documents and Settings\Rakesh\My Documents\DVDVideoSoft\F
reeVideoToSamsungPhonesConverter\Gorgeous brunette filmed fucking(1).mp4':
Stream #0.0: Video: mpeg4, yuv420p, 320x240 [PAR 1:1 DAR 4:3], q=2-31, 60 kb
/s, 15 tbn, 15 tbc
Stream #0.1: Audio: aac, 8000 Hz, 1 channels, s16, 12 kb/s
Stream mapping:
Stream #0.0 -> #0.0
Stream #0.1 -> #0.1
Press [q] to stop encoding
frame= 56 f[VC] Convert Success

[VC] [v08.02.2010] In Open(D:\games\Counter Strike\New Folde\KoreanTeacher.wmv)


[VC] FileFormat: asf, 1211.344000
[VC] Video: wmv3, 308000, 320x240, 1000.000000
[VC] Audio: wmav2, 32000, 32000, 2
[VC] Title: Artist: Album: Year: 0 Track: 0
[VC] Out Open = S_OK
[VC] Set output video format, input stream id: 1, id: 0, index: 0, format type:
0, width: 1073742144, height: 240, bit rate: 60000, frame rate: 15.000000, pixel
format: 0, native format type: 0.
[VC] Set output audio format, input stream id: 0, id: 0, index: 0, format type:
0, bit rate: 12000, sample rate: 8000, channels: 1, sample format: 0, native for
mat type: 0.
[VC] [v09.06.2010] Save C:\Documents and Settings\Rakesh\My Documents\DVDVideoSo
ft\FreeVideoToSamsungPhonesConverter\KoreanTeacher.mp4
[VC] Input audio and video streams: 1, 1. Extended output audio and video stream
s: 1, 1
[VC] Extended regime to convert: yes
[VC] SameVideoQualityAsSource: 0
[VC] OutputVideoFormat: 1, 0, 320, 240, 15.000000, 60000
[VC] OutputAudioFormat: 0, 12000, 8000, 1
[VC] OutTimeInterval: 0.000000, -1.000000
[VC] Corrected videoOutputWidth: 320, videoOutputHeight: 240
"C:\Program Files\Common Files\DVDVideoSoft\Dll\\ffmpeg.exe" -y -i "D:\games\Cou
nter Strike\New Folde\KoreanTeacher.wmv" -map 0:1 -map 0:0 -ss 0.00 -vcodec mpeg
4 -r 15.000000 -s 320x240 -b 60000 -aspect 4:3 -acodec libfaac -ab 12000 -ar 800
0 -ac 1 -f mp4 -threads 3 "C:\Documents and Settings\Rakesh\My Documents\DVDVide
oSoft\FreeVideoToSamsungPhonesConverter\KoreanTeacher.mp4"
FFmpeg version r21343-www.DVDVideoSoft.com, Copyright (c) 2000-2010 Fabrice Bell
ard, et al.
built on Feb 2 2010 17:23:32 with gcc 4.2.4
libavutil 50. 7. 0 / 50. 7. 0
libavcodec 52.48. 0 / 52.48. 0
libavformat 52.47. 0 / 52.47. 0
libavdevice 52. 2. 0 / 52. 2. 0
libavfilter 1.17. 0 / 1.17. 0
libswscale 0. 8. 0 / 0. 8. 0
libpostproc 51. 2. 0 / 51. 2. 0
[wmv3 @ 0xa7e6a0]Extra data: 8 bits left, value: 0
Seems stream 1 codec frame rate differs from container frame rate: 1000.00 (1000
/1) -> 25.00 (25/1)
Input #0, asf, from 'D:\games\Counter Strike\New Folde\KoreanTeacher.wmv':
Metadata:
Application : Windows Movie Maker 2.1.4026.0
ParentalRating :
WMFSDKVersion : 11.0.5721.5240
WMFSDKNeeded : 0.0.0.0000
IsVBR : 0
title :
author :
copyright :
comment :
Duration: 00:20:11.34, start: 5.000000, bitrate: 350 kb/s
Stream #0.0(vie): Audio: wmav2, 32000 Hz, 2 channels, s16, 32 kb/s
Stream #0.1(vie): Video: wmv3, yuv420p, 320x240, 308 kb/s, 25 tbr, 1k tbn, 1
k tbc
[wmv3 @ 0xa7e6a0]Extra data: 8 bits left, value: 0
Output #0, mp4, to 'C:\Documents and Settings\Rakesh\My Documents\DVDVideoSoft\F
reeVideoToSamsungPhonesConverter\KoreanTeacher.mp4':
Stream #0.0(vie): Video: mpeg4, yuv420p, 320x240 [PAR 1:1 DAR 4:3], q=2-31,
60 kb/s, 15 tbn, 15 tbc
Stream #0.1(vie): Audio: aac, 8000 Hz, 1 channels, s16, 12 kb/s
Stream mapping:
Stream #0.1 -> #0.0
Stream #0.0 -> #0.1
Press [q] to stop encoding
frame= 203 fps= 0 q=12.7 size= 144kB time=9.34 bitrate= 126.3kbits/s dup=0
[VC]
drop=134
Convert Success

[VC] [v08.02.2010] In Open(D:\games\Counter Strike\New Folde\uns19a.avi)


[VC] FileFormat: avi, 4645.278612
[VC] Video: mpeg4, 0, 512x384, 29.979414
[VC] Audio: mp3, 128000, 48000, 2
[VC] Title: Artist: Album: Year: 0 Track: 0
[VC] Out Open = S_OK
[VC] Set output video format, input stream id: 0, id: 0, index: 0, format type:
0, width: 1073742144, height: 240, bit rate: 60000, frame rate: 15.000000, pixel
format: 0, native format type: 0.
[VC] Set output audio format, input stream id: 1, id: 0, index: 0, format type:
0, bit rate: 12000, sample rate: 8000, channels: 1, sample format: 0, native for
mat type: 0.
[VC] [v09.06.2010] Save C:\Documents and Settings\Rakesh\My Documents\DVDVideoSo
ft\FreeVideoToSamsungPhonesConverter\uns19a.mp4
[VC] Input audio and video streams: 1, 1. Extended output audio and video stream
s: 1, 1
[VC] Extended regime to convert: yes
[VC] SameVideoQualityAsSource: 0
[VC] OutputVideoFormat: 1, 0, 320, 240, 15.000000, 60000
[VC] OutputAudioFormat: 0, 12000, 8000, 1
[VC] OutTimeInterval: 0.000000, -1.000000
[VC] Corrected videoOutputWidth: 320, videoOutputHeight: 240
"C:\Program Files\Common Files\DVDVideoSoft\Dll\\ffmpeg.exe" -y -i "D:\games\Cou
nter Strike\New Folde\uns19a.avi" -map 0:0 -map 0:1 -ss 0.00 -vcodec mpeg4 -r 15
.000000 -s 320x240 -b 60000 -aspect 4:3 -acodec libfaac -ab 12000 -ar 8000 -ac 1
-f mp4 -threads 3 "C:\Documents and Settings\Rakesh\My Documents\DVDVideoSoft\F
reeVideoToSamsungPhonesConverter\uns19a.mp4"
FFmpeg version r21343-www.DVDVideoSoft.com, Copyright (c) 2000-2010 Fabrice Bell
ard, et al.
built on Feb 2 2010 17:23:32 with gcc 4.2.4
libavutil 50. 7. 0 / 50. 7. 0
libavcodec 52.48. 0 / 52.48. 0
libavformat 52.47. 0 / 52.47. 0
libavdevice 52. 2. 0 / 52. 2. 0
libavfilter 1.17. 0 / 1.17. 0
libswscale 0. 8. 0 / 0. 8. 0
libpostproc 51. 2. 0 / 51. 2. 0
[NULL @ 0x3ffa70]Invalid and inefficient vfw-avi packed B frames detected
Seems stream 0 codec frame rate differs from container frame rate: 29.98 (65535/
2186) -> 29.97 (2997/100)
Input #0, avi, from 'D:\games\Counter Strike\New Folde\uns19a.avi':
Duration: 01:17:25.27, start: 0.000000, bitrate: 1263 kb/s
Stream #0.0: Video: mpeg4, yuv420p, 512x384 [PAR 1:1 DAR 4:3], 29.97 tbr, 29
.97 tbn, 29.98 tbc
Stream #0.1: Audio: mp3, 48000 Hz, 2 channels, s16, 128 kb/s
Output #0, mp4, to 'C:\Documents and Settings\Rakesh\My Documents\DVDVideoSoft\F
reeVideoToSamsungPhonesConverter\uns19a.mp4':
Stream #0.0: Video: mpeg4, yuv420p, 320x240 [PAR 1:1 DAR 4:3], q=2-31, 60 kb
/s, 15 tbn, 15 tbc
Stream #0.1: Audio: aac, 8000 Hz, 1 channels, s16, 12 kb/s
Stream mapping:
Stream #0.0 -> #0.0
Stream #0.1 -> #0.1
Press [q] to stop encoding
[mpeg4 @ 0x3ffa70]Invalid and inefficient vfw-avi packed B frames detected
frame= 56 fps= 0 q=12.1 size= 81kB time=3.71 bitrate= 178.7kbits/s dup=0
[VC]
drop=53
Convert Success