====== Module VideoFileToIPOD Log Version = 1,3,1,125

======
OS Info 6 0 0 0
====== Module HttpVideoDownloader Log Version = 2,3,1,186 ======
OS Info 6 0 0 0
File Download Break. Error 0
In Open(C:\Users\Barao\Documents\DVDVideoSoft\Temp\video_download_temp_10_37_43_
651.mp4)
FileFormat: mov,mp4,m4a,3gp,3g2,mj2, 175.751837
Video: h264, 0, 480x360, 25.000000
Audio: mpeg4aac, 0, 44100, 2
Title video_download_temp_10_37_43_651 Artist Album Year 2009 Track 0
Out Open = S_OK
Save J:\Selaçao_2009\Jorge e Mateus 2009 - Se eu pedir. cê volta.mp3
OutputVideoFormat: 0, -1, 480, 360, 0.000000, 0
OutputAudioFormat: 1, 128000, 44100, 2
OutTimeInterval: 0.000000, -1.000000
"C:\Program Files\Common Files\DVDVideoSoft\Dll\\ffmpeg.exe" -threads 1 -y -i "C
:\Users\Barao\Documents\DVDVideoSoft\Temp\video_download_temp_10_37_43_651.mp4"
-ss 0.00 -vn -acodec libmp3lame -ab 128000 -ar 44100 -ac 2 -f mp3 -title "Jorge
e Mateus 2009 - Se eu pedir. cê volta" -year 2009 "J:\Selaçao_2009\Jorge e Mateus 20
09 - Se eu pedir. cê volta.mp3"
FFmpeg version SVN-r11213, Copyright (c) 2000-2007 Fabrice Bellard, et al.
configuration: --enable-memalign-hack --enable-libamr-nb --enable-libamr-wb -enable-libfaac --enable-libfaad --enable-libgsm --enable-libmp3lame --enable-lib
vorbis --enable-libtheora --enable-liba52 --enable-libx264 --enable-libxvid --en
able-swscaler --enable-gpl --enable-avisynth --cpu=i686 --enable-pthreads --enab
le-shared --disable-static
libavutil version: 49.6.0
libavcodec version: 51.49.0
libavformat version: 52.2.0
built on Dec 13 2007 21:42:07, gcc: 4.2.1-sjlj (mingw32-2)
Input #0, mov,mp4,m4a,3gp,3g2,mj2, from 'C:\Users\Barao\Documents\DVDVideoSoft\T
emp\video_download_temp_10_37_43_651.mp4':
Duration: 00:02:55.7, start: 0.000000, bitrate: 474 kb/s
Stream #0.0(und): Audio: mpeg4aac, 44100 Hz, stereo
Stream #0.1(und): Video: h264, yuv420p, 480x360 [PAR 0:1 DAR 0:1], 25.00 tb(
r)
Output #0, mp3, to 'J:\Selaçao_2009\Jorge e Mateus 2009 - Se eu pedir. cê volta.mp3'
:
Stream #0.0(und): Audio: libmp3lame, 44100 Hz, stereo, 128 kb/s
Stream mapping:
Stream #0.0 -> #0.0
Press [q] to stop encoding
size=
2713kB
2747kB
21kB time=175.8
time=1.4 bitrate=
time=173.6
bitrate=128.6kbits/s
128.0kbits/s
video:0kB audio:2747kB global headers:0kB muxing overhead 0.008107%
Convert Success
File Download Break. Error 0
In Open(C:\Users\Barao\Documents\DVDVideoSoft\Temp\video_download_temp_10_40_47_
465.mp4)
FileFormat: mov,mp4,m4a,3gp,3g2,mj2, 213.461043
Video: h264, 0, 320x240, 25.000000
Audio: mpeg4aac, 0, 44100, 2
Title video_download_temp_10_40_47_465 Artist Album Year 2009 Track 0
Out Open = S_OK
Save J:\Selaçao_2009\Jorge e Mateus 2009 - Voa Beija Flor.mp3

mp3': Stream #0. 240.0 libavformat version: 52. 0.0 libavcodec version: 51.m4a. 2 OutTimeInterval: 0.4kbits/s video:0kB audio:3336kB global headers:0kB muxing overhead 0.0(und): Audio: libmp3lame. 25. configuration: --enable-memalign-hack --enable-libamr-nb --enable-libamr-wb -enable-libfaac --enable-libfaad --enable-libgsm --enable-libmp3lame --enable-lib vorbis --enable-libtheora --enable-liba52 --enable-libx264 --enable-libxvid --en able-swscaler --enable-gpl --enable-avisynth --cpu=i686 --enable-pthreads --enab le-shared --disable-static libavutil version: 49.49. -1.006470% Convert Success File Download Break.3g2. 2 OutTimeInterval: 0. -1.2.3g2.0 .000000.0(und): Audio: mpeg4aac.exe" -threads 1 -y -i "C :\Users\Barao\Documents\DVDVideoSoft\Temp\video_download_temp_10_44_45_587. -1.0 libavcodec version: 51.3gp.O mundo é tão pequeno.1-sjlj (mingw32-2) Input #0. 128000. Copyright (c) 2000-2007 Fabrice Bellard. 44100. Copyright (c) 2000-2007 Fabrice Bellard.3gp. 128000. 480.mp3" FFmpeg version SVN-r11213.000000.mp3" FFmpeg version SVN-r11213.000000.mj2. yuv420p.m4a.4. 0 OutputAudioFormat: 1. Error 0 In Open(C:\Users\Barao\Documents\DVDVideoSoft\Temp\video_download_temp_10_44_45_ 587.1(und): Video: h264. 480x360. 44100 Hz.624943 Video: h264.0 libavformat version: 52. 320x240 [PAR 0:1 DAR 0:1].6. 0 OutputAudioFormat: 1. stereo Stream #0. et al.OutputVideoFormat: 0.mp4. configuration: --enable-memalign-hack --enable-libamr-nb --enable-libamr-wb -enable-libfaac --enable-libfaad --enable-libgsm --enable-libmp3lame --enable-lib vorbis --enable-libtheora --enable-liba52 --enable-libx264 --enable-libxvid --en able-swscaler --enable-gpl --enable-avisynth --cpu=i686 --enable-pthreads --enab le-shared --disable-static libavutil version: 49.mp4) FileFormat: mov. 2 Title video_download_temp_10_44_45_587 Artist Album Year 2009 Track 0 Out Open = S_OK Save J:\Selaçao_2009\Jorge e Mateus 2009 .6.0 -> #0. 320. 44100 Hz.0 built on Dec 13 2007 21:42:07. 128 kb/s Stream mapping: Stream #0. -1. mov. 44100.00 tb( r) Output #0.O mundo é tão pequeno.000000 Audio: mpeg4aac.O mundo é tão pequeno" -year 2009 "J:\Selaçao_2009\Jorge e Mateus 2009 .mj2. mp3.mp4" -ss 0. from 'C:\Users\Barao\Documents\DVDVideoSoft\T emp\video_download_temp_10_40_47_465. 0.2.Voa Beija Flor" -year 2009 "J:\Selaçao_2009\Jorge e Mateus 2009 Voa Beija Flor.Voa Beija Flor. 0. 182.49. 44100. start: 0.exe" -threads 1 -y -i "C :\Users\Barao\Documents\DVDVideoSoft\Temp\video_download_temp_10_40_47_465. 25.mp4': Duration: 00:03:33. stereo. 0. to 'J:\Selaçao_2009\Jorge e Mateus 2009 .mp4" -ss 0.00 -vn -acodec libmp3lame -ab 128000 -ar 44100 -ac 2 -f mp3 -title "Jorge e Mateus 2009 .mp3 OutputVideoFormat: 0. gcc: 4.0 Press [q] to stop encoding size= 27kB time=1. 360.00 -vn -acodec libmp3lame -ab 128000 -ar 44100 -ac 2 -f mp3 -title "Jorge e Mateus 2009 .000000 "C:\Program Files\Common Files\DVDVideoSoft\Dll\\ffmpeg.2.000000 "C:\Program Files\Common Files\DVDVideoSoft\Dll\\ffmpeg.7 bitrate= 128.000000. et al.mp4.000000. bitrate: 319 kb/s Stream #0.

006824% Convert Success . yuv420p.mp4) FileFormat: mov. from 'C:\Users\Barao\Documents\DVDVideoSoft\T emp\video_download_temp_10_44_45_587.000000.00 -vn -acodec libmp3lame -ab 128000 -ar 44100 -ac 2 -f mp3 -title "Um Dia Te Levo Comigo .0 libavcodec version: 51.mp4" -ss 0. mov.mj2.mp4.0 bitrate=128. bitrate: 473 kb/s Stream #0.mp4.0kbits/s video:0kB audio:2854kB global headers:0kB muxing overhead 0.mj2.0 -> #0. Error 0 In Open(C:\Users\Barao\Documents\DVDVideoSoft\Temp\video_download_temp_10_48_05_ 124. 480x360.007802% Convert Success File Download Break. 44100 Hz.3g2. bitrate: 392 kb/s Stream #0.793832 Video: h264. mov.0(und): Audio: libmp3lame. 128 kb/s Stream mapping: Stream #0. et al.Jorge e Mateus 2009. yuv420p. 25.1(und): Video: h264. to 'J:\Selaçao_2009\Jorge e Mateus 2009 . 44100 Hz.8 time=1. stereo.6kbits/s 128. stereo Stream #0.0 built on Dec 13 2007 21:42:07.3g2. start: 0.m4a.0(und): Audio: libmp3lame. 0. mp3.m4a.2.000000 "C:\Program Files\Common Files\DVDVideoSoft\Dll\\ffmpeg. 44100 Hz. 128000.0(und): Audio: mpeg4aac. configuration: --enable-memalign-hack --enable-libamr-nb --enable-libamr-wb -enable-libfaac --enable-libfaad --enable-libgsm --enable-libmp3lame --enable-lib vorbis --enable-libtheora --enable-liba52 --enable-libx264 --enable-libxvid --en able-swscaler --enable-gpl --enable-avisynth --cpu=i686 --enable-pthreads --enab le-shared --disable-static libavutil version: 49.m4a.0 libavformat version: 52.000000.6 time=1.000000.O mundo é tão pequeno. 208.3gp.Jorge e Mateus 2009.Jorge e Mateus 2009.00 tb( r) Output #0. 128 kb/s Stream mapping: Stream #0. from 'C:\Users\Barao\Documents\DVDVideoSoft\T emp\video_download_temp_10_48_05_124.1-sjlj (mingw32-2) Input #0. 44100.9 bitrate= time=181.49.4 bitrate= bitrate=128. stereo Stream #0. 360. Copyright (c) 2000-2007 Fabrice Bellard.0 Press [q] to stop encoding size= 2828kB 2854kB 30kB time=182.000000 Audio: mpeg4aac.3gp.Jorge e Mateus 2009" -year 2009 "J:\Selaçao_2009\Um Dia Te Levo Comigo .0(und): Audio: mpeg4aac.0 Press [q] to stop encoding size= 3263kB 23kB time=208.1(und): Video: h264.3gp.mp3 OutputVideoFormat: 0. 480x360 [PAR 0:1 DAR 0:1]. 0.000000.mp4': Duration: 00:03:02.1-sjlj (mingw32-2) Input #0.exe" -threads 1 -y -i "C :\Users\Barao\Documents\DVDVideoSoft\Temp\video_download_temp_10_48_05_124.2.6.2. 25. mp3.mp4.mj2.mp4': Duration: 00:03:28.built on Dec 13 2007 21:42:07. gcc: 4. 44100.mp3" FFmpeg version SVN-r11213.7. to 'J:\Selaçao_2009\Um Dia Te Levo Comigo . 44100 Hz. 480x360 [PAR 0:1 DAR 0:1]. gcc: 4.3g2.4kbits/s 128. 2 OutTimeInterval: 0. 2 Title video_download_temp_10_48_05_124 Artist Album Year 2009 Track 0 Out Open = S_OK Save J:\Selaçao_2009\Um Dia Te Levo Comigo .mp 3': Stream #0. -1. stereo.mp3': Stream #0.0kbits/s video:0kB audio:3263kB global headers:0kB muxing overhead 0. 25. 0.0 -> #0. 0 OutputAudioFormat: 1. start: 0.6. -1.00 tb( r) Output #0. 480.

005872% Convert Success File Download Break. bitrate: 374 kb/s Stream #0.0 Press [q] to stop encoding size= 3606kB 3642kB 25kB time=233.3g2. 233. 128 kb/s Stream mapping: Stream #0.3gp.mj2.mp3 OutputVideoFormat: 0.000000 Audio: mpeg4aac.mj2.00 tb( r) Output #0.exe" -threads 1 -y -i "C :\Users\Barao\Documents\DVDVideoSoft\Temp\video_download_temp_10_52_10_982. 2 Title video_download_temp_10_52_10_982 Artist Album Year 2009 Track 0 Out Open = S_OK Save J:\Selaçao_2009\Jorge e Mateus 2009 . stereo Stream #0. 480.0 libavcodec version: 51. -1.Amor covarde.m4a.mp4. Error 0 In Open(C:\Users\Barao\Documents\DVDVideoSoft\Temp\video_download_temp_10_55_45_ 805.000000 "C:\Program Files\Common Files\DVDVideoSoft\Dll\\ffmpeg.000000. 0. 480. -1. 44100.3g2. mov.6.2.00 -vn -acodec libmp3lame -ab 128000 -ar 44100 -ac 2 -f mp3 -title "Jorge e Mateus 2009 .mp4. start: 0.3gp. 0. 0.File Download Break.8 bitrate=128.000000 Audio: mpeg4aac.000000 "C:\Program Files\Common Files\DVDVideoSoft\Dll\\ffmpeg.2.m4a.0(und): Audio: libmp3lame. et al. mp3.1(und): Video: h264.0.exe" -threads 1 -y -i "C :\Users\Barao\Documents\DVDVideoSoft\Temp\video_download_temp_10_55_45_805. 2 OutTimeInterval: 0.Am or covarde.Eu só quero te amar" -year 2009 "J:\Selaçao_2009\Jorge e Mateus 2009 . 2 Title video_download_temp_10_55_45_805 Artist Album Year 2009 Track 0 Out Open = S_OK Save J:\Selaçao_2009\Jorge e Mateus 2009 .0(und): Audio: mpeg4aac.mp3': Stream #0.000000. 0. 0 OutputAudioFormat: 1.00 -vn -acodec libmp3lame -ab 128000 -ar 44100 -ac 2 -f mp3 -title "Jorge e Mateus 2009 . 25.0 built on Dec 13 2007 21:42:07. 480x360.Eu só quero te amar. 128000.0 -> #0. 128000. 360.mp3" FFmpeg version SVN-r11213. to 'J:\Selaçao_2009\Jorge e Mateus 2009 . stereo. Error 0 In Open(C:\Users\Barao\Documents\DVDVideoSoft\Temp\video_download_temp_10_52_10_ 982.mp4" -ss 0. -1.1 time=1. 0 OutputAudioFormat: 1.mp4': Duration: 00:03:53.49. 0.598821 Video: h264. from 'C:\Users\Barao\Documents\DVDVideoSoft\T emp\video_download_temp_10_52_10_982. 25. 44100 Hz.mp4" -ss 0.Amor covarde" -year 2009 "J:\Selaçao_2009\Jorge e Mateus 2009 .3g2. 44100. 480x360.000000.000000.Amor covarde.m4a. gcc: 4.mp4) FileFormat: mov. 480x360 [PAR 0:1 DAR 0:1]. 360.mj2.mp4. 2 OutTimeInterval: 0.5kbits/s 128. 0.081905 Video: h264. -1.0kbits/s video:0kB audio:3642kB global headers:0kB muxing overhead 0. 25.000000.1-sjlj (mingw32-2) Input #0.mp3 OutputVideoFormat: 0. 214.6 bitrate= time=230. 44100. yuv420p. configuration: --enable-memalign-hack --enable-libamr-nb --enable-libamr-wb -enable-libfaac --enable-libfaad --enable-libgsm --enable-libmp3lame --enable-lib vorbis --enable-libtheora --enable-liba52 --enable-libx264 --enable-libxvid --en able-swscaler --enable-gpl --enable-avisynth --cpu=i686 --enable-pthreads --enab le-shared --disable-static libavutil version: 49.3gp.mp4) FileFormat: mov. 44100 Hz. 44100. Copyright (c) 2000-2007 Fabrice Bellard.0 libavformat version: 52.

Error File Format ====== Module VideoFileToIPOD Log Version = 1.49. Error 0 Seek(3603).0 Press [q] to stop encoding size= 3354kB 26kB time=214. Error 0 Seek(3603). Error 0 Seek(3603).mp3': Stream #0. 25.5kbits/s 128. Error 12016 File Download Break.1.3. mp3.3g2.mp4': Duration: 00:03:34. from 'C:\Users\Barao\Documents\DVDVideoSoft\T emp\video_download_temp_10_55_45_805.0 libavformat version: 52. et al. Error 0 File Download Break. Error 12016 File Download Break.186 ====== OS Info 6 0 0 0 . to 'J:\Selaçao_2009\Jorge e Mateus 2009 . Error 12016 File Download Break.mj2. Error 12016 File Download Break. configuration: --enable-memalign-hack --enable-libamr-nb --enable-libamr-wb -enable-libfaac --enable-libfaad --enable-libgsm --enable-libmp3lame --enable-lib vorbis --enable-libtheora --enable-liba52 --enable-libx264 --enable-libxvid --en able-swscaler --enable-gpl --enable-avisynth --cpu=i686 --enable-pthreads --enab le-shared --disable-static libavutil version: 49.125 ====== OS Info 6 0 0 0 ====== Module HttpVideoDownloader Log Version = 2.1-sjlj (mingw32-2) Input #0. 480x360 [PAR 0:1 DAR 0:1].m4a. Error 12016 File Download Break.3gp. Error 0 Seek(3603). Copyright (c) 2000-2007 Fabrice Bellard.6 bitrate= bitrate=128. mov. start: 0. 128 kb/s Stream mapping: Stream #0.0 libavcodec version: 51. Error 0 Seek(3603). Error 0 Seek(3603)..mp4) Open.00 tb( r) Output #0.0 -> #0.6.3.0kbits/s video:0kB audio:3353kB global headers:0kB muxing overhead 0. Error 0 Seek(3603).0 built on Dec 13 2007 21:42:07.1. Error 12016 File Download Break. stereo.Eu só quero te amar. Error 12016 File Download Break.6 time=1. stereo Stream #0. 44100 Hz.mp4. Error 12016 File Download Break.2.5. Error 12002 Seek(12781568). Error 0 Seek(3603). bitrate: 423 kb/s Stream #0.0(und): Audio: libmp3lame. 44100 Hz.000000. gcc: 4.Eu só quero te amar.0(und): Audio: mpeg4aac.1(und): Video: h264.006581% Convert Success File Download Break.2. yuv420p.mp3" FFmpeg version SVN-r11213. Error 0 In Open(C:\Users\Barao\Documents\DVDVideoSoft\Temp\video_download_temp_11_04_50_ 596.

Sign up to vote on this title
UsefulNot useful