C:\Program Files\DVD Flick\bin\ffmpeg.

exe -i "C:\Users\mactheENGR\Desktop\tr\Mat
t and Sophie's Wedding.wmv" -i "C:\Users\mactheENGR\Documents\dvd\1.0.m2v" -map
0:0:1:0 -acodec ac3 -ab 192k -ac 2 -ar 48000 -threads 4 -async 0 -shortest "C:\U
sers\mactheENGR\Documents\dvd\1.0.0.ac3"
FFmpeg version SVN-r19276, Copyright (c) 2000-2009 Fabrice Bellard, et al.
configuration: --enable-gpl --enable-memalign-hack --enable-runtime-cpudetect
--disable-protocols --disable-indevs --disable-bsfs --disable-filters --disablenetwork --disable-ffplay --disable-ffserver --disable-encoders --disable-muxers
--enable-w32threads --enable-libgsm --enable-libfaad --enable-encoder=mjpeg --en
able-encoder=mpeg2video --enable-encoder=ac3 --enable-demuxers --enable-muxer=ac
3 --enable-muxer=image2 --enable-muxer=mpeg2video --enable-muxer=dvd --enable-av
isynth --enable-protocol=file --enable-protocol=pipe --enable-encoder=rawvideo -enable-muxer=yuv4mpegpipe
libavutil
50. 3. 0 / 50. 3. 0
libavcodec
52.32. 0 / 52.32. 0
libavformat 52.36. 0 / 52.36. 0
libavdevice 52. 2. 0 / 52. 2. 0
libswscale
0. 7. 1 / 0. 7. 1
built on Jun 26 2009 00:46:13, gcc: 4.4.0
[wmv3 @ 0x1cfd4e0]Extra data: 8 bits left, value: 0
Seems stream 1 codec frame rate differs from container frame rate: 1000.00 (1000
/1) -> 29.97 (30000/1001)
Input #0, asf, from 'C:\Users\mactheENGR\Desktop\tr\Matt and Sophie's Wedding.wm
v':
Duration: 00:05:47.95, start: 5.000000, bitrate: 2792 kb/s
Stream #0.0(eng): Audio: wmav2, 48000 Hz, 2 channels, s16, 192 kb/s
Stream #0.1(eng): Video: wmv3, yuv420p, 720x480, 2799 kb/s, 29.970 tbr, 1k t
bn, 1k tbc
Seems stream 0 codec frame rate differs from container frame rate: 50.00 (50/1)
-> 25.00 (25/1)
Input #1, mpegvideo, from 'C:\Users\mactheENGR\Documents\dvd\1.0.m2v':
Duration: 00:05:52.98, bitrate: 8949 kb/s
Stream #1.0: Video: mpeg2video, yuv420p, 720x576 [PAR 16:15 DAR 4:3], 8950 k
b/s, 25 tbr, 1200k tbn, 50 tbc
[ac3 @ 0x1d06fe0]No channel layout specified. The encoder will guess the layout,
but it might be incorrect.
Output #0, ac3, to 'C:\Users\mactheENGR\Documents\dvd\1.0.0.ac3':
Stream #0.0(eng): Audio: ac3, 48000 Hz, stereo, s16, 192 kb/s
Stream mapping:
Stream #0.0 -> #0.0 [sync #1.0]
Press [q] to stop encoding
size=
1072kB
1665kB
2247kB
2844kB
3417kB
3992kB
4574kB
5179kB
5774kB
6379kB
6982kB
7576kB
8179kB
8276kB
490kB time=353.09
time=20.90 bitrate=
time=45.73
time=71.04
time=95.87
time=121.34
time=145.79
time=170.30
time=195.14
time=220.96
time=246.34
time=272.16
time=297.89
time=323.23
time=348.96
bitrate=192.0kbits/s
192.0kbits/s
video:0kB audio:8276kB global headers:0kB muxing overhead 0.000000%

Sign up to vote on this title
UsefulNot useful