C:\Program Files\DVD Flick\bin\ffmpeg.

exe -i "C:\Users\Bruno\Desktop\PAULO FREIR
E\ENTREVISTA A PAULO FREIRE.wmv" -i "C:\Users\Bruno\Desktop\PAULO FREIRE\0.0.m2v
" -map 0:0:1:0 -acodec ac3 -ab 96k -ac 1 -ar 48000 -threads 2 -async 0 -shortest
"C:\Users\Bruno\Desktop\PAULO FREIRE\0.0.0.ac3"
FFmpeg version SVN-r19276, Copyright (c) 2000-2009 Fabrice Bellard, et al.
configuration: --enable-gpl --enable-memalign-hack --enable-runtime-cpudetect
--disable-protocols --disable-indevs --disable-bsfs --disable-filters --disablenetwork --disable-ffplay --disable-ffserver --disable-encoders --disable-muxers
--enable-w32threads --enable-libgsm --enable-libfaad --enable-encoder=mjpeg --en
able-encoder=mpeg2video --enable-encoder=ac3 --enable-demuxers --enable-muxer=ac
3 --enable-muxer=image2 --enable-muxer=mpeg2video --enable-muxer=dvd --enable-av
isynth --enable-protocol=file --enable-protocol=pipe --enable-encoder=rawvideo -enable-muxer=yuv4mpegpipe
libavutil
50. 3. 0 / 50. 3. 0
libavcodec
52.32. 0 / 52.32. 0
libavformat 52.36. 0 / 52.36. 0
libavdevice 52. 2. 0 / 52. 2. 0
libswscale
0. 7. 1 / 0. 7. 1
built on Jun 26 2009 00:46:13, gcc: 4.4.0
[wmv3 @ 0xec0ac0]Extra data: 8 bits left, value: 0
Seems stream 1 codec frame rate differs from container frame rate: 1000.00 (1000
/1) -> 15.00 (15/1)
Input #0, asf, from 'C:\Users\Bruno\Desktop\PAULO FREIRE\ENTREVISTA A PAULO FREI
RE.wmv':
Duration: 00:15:40.25, start: 5.000000, bitrate: 414 kb/s
Stream #0.0(eng): Audio: wmav2, 44100 Hz, 1 channels, s16, 48 kb/s
Stream #0.1(eng): Video: wmv3, yuv420p, 416x320, 349 kb/s, 15 tbr, 1k tbn, 1
k tbc
Seems stream 0 codec frame rate differs from container frame rate: 59.94 (60000/
1001) -> 29.97 (30000/1001)
Input #1, mpegvideo, from 'C:\Users\Bruno\Desktop\PAULO FREIRE\0.0.m2v':
Duration: 00:15:44.22, bitrate: 8949 kb/s
Stream #1.0: Video: mpeg2video, yuv420p, 720x480 [PAR 8:9 DAR 4:3], 8950 kb/
s, 29.970 tbr, 1200k tbn, 59.940 tbc
[ac3 @ 0xedcfe0]No channel layout specified. The encoder will guess the layout,
but it might be incorrect.
Output #0, ac3, to 'C:\Users\Bruno\Desktop\PAULO FREIRE\0.0.0.ac3':
Stream #0.0(eng): Audio: ac3, 48000 Hz, mono, s16, 96 kb/s
Stream mapping:
Stream #0.0 -> #0.0 [sync #1.0]
Press [q] to stop encoding
size= 11067kB
10419kB
1153kB
1756kB
2335kB
2860kB
3291kB
3934kB
4580kB
5228kB
5873kB
6522kB
7165kB
7807kB
8455kB
9101kB
9760kB
461kB time=944.38
840kB
time=39.33 bitrate=
time=71.65
time=98.40
time=149.89
time=199.26
time=244.03
time=280.86
time=335.74
time=390.82
time=446.14
time=501.15
time=556.58
time=611.42
time=666.21
time=721.47
time=776.64
time=832.83
time=889.09
bitrate= 96.0kbits/s
96.0kbits/s
video:0kB audio:11067kB global headers:0kB muxing overhead 0.000000%

Sign up to vote on this title
UsefulNot useful