Exact Audio Copy V0.99 prebeta 5 from 4.

May 2009
Îò÷¸ò EAC îá èçâëå÷åíèè, âûïîëíåííîì 7. àïðåëÿ 2010, 22:56
Sergei Prokofiev & Dmitri Shostakovich / Works for 2 Pianists under Soviet Rule
Äèñêîâîä: Optiarc DVD RW AD-7203A
Ðåæèì ÷òåíèÿ
Èñïîëüçîâàíèå òî÷íîãî ïîòîêà
Îòêëþ÷åíèå êýøà àóäèî
Èñïîëüçîâàíèå óêàçàòåëåé C2

:
:
:
:

Adapter: 4 ID: 1

Äîñòîâåðíîñòü
Äà
Äà
Íåò

Êîððåêöèÿ ñìåùåíèÿ ïðè ÷òåíèè
Ñïîñîáíîñòü ÷èòàòü îáëàñòè Lead-in è Lead-out
Çàïîëíåíèå ïðîïóùåííûõ ñýìïëîâ òèøèíîé
Óäàëåíèå áëîêîâ ñ òèøèíîé â íà÷àëå è êîíöå
Ïðè âû÷èñëåíèÿõ CRC èñïîëüçîâàëèñü íóëåâûå ñýìïëû
Èíòåðôåéñ
Âûõîäíîé ôîðìàò
Âûáðàííûé áèòðåéò
Êà÷åñòâî
Äîáàâëåíèå ID3-òýãà
Óòèëèòà ñæàòèÿ
Äîïîëíèòåëüíûå ïàðàìåòðû

:
:
:
:
:
:

:
:
:
:
:
:

48
Íåò
Äà
Íåò
Äà
Âñòðîåííûé Win32-èíòåðôåéñ äëÿ Win NT/200

Ïîëüçîâàòåëüñêèé êîäèðîâùèê
128 kBit/s
Âûñîêèé
Íåò
C:\Program Files\FLAC\flac.exe
-5 -V %s

TOC èçâëå÷¸ííîãî CD
Òðåê | Ñòàðò | Äëèòåëüíîñòü | Íà÷àëüíûé ñåêòîð | Êîíå÷íûé ñåêòîð
--------------------------------------------------------------------1 | 0:00.00 |
2:33.69 |
0
|
11543
2 | 2:33.69 |
3:31.01 |
11544
|
27369
3 | 6:04.70 |
4:19.62 |
27370
|
46856
4 | 10:24.57 |
2:04.51 |
46857
|
56207
5 | 12:29.33 |
5:48.14 |
56208
|
82321
6 | 18:17.47 |
2:07.64 |
82322
|
91910
7 | 20:25.36 |
4:50.16 |
91911
|
113676
8 | 25:15.52 |
3:40.44 |
113677
|
130220
9 | 28:56.21 |
6:12.59 |
130221
|
158179
10 | 35:09.05 |
4:18.44 |
158180
|
177573
11 | 39:27.49 |
3:03.52 |
177574
|
191350
12 | 42:31.26 |
8:18.36 |
191351
|
228736
13 | 50:49.62 |
9:04.36 |
228737
|
269572
Õàðàêòåðèñòèêè äèàïàçîíà èçâëå÷åíèÿ è ñîîáùåíèÿ îá îøèáêàõ
Âûáðàííûé äèàïàçîí

Èìÿ ôàéëà D:\EAC\Sergei Prokofiev & Dmitri Shostakovich - Works for 2 Pianists under Sov
Rule.wav
Ïèêîâûé óðîâåíü 98.8 %
Êà÷åñòâî äèàïàçîíà 100.0 %
CRC òåñòà 4B2E2DCD
CRC êîïèè 4B2E2DCD
Êîïèðîâàíèå... OK

Îøèáîê íå ïðîèçîøëî
AccurateRip: ñâîäêà
Òðåê
Òðåê
Òðåê
Òðåê
Òðåê
Òðåê
Òðåê
Òðåê
Òðåê
Òðåê
Òðåê
Òðåê
Òðåê

1
2
3
4
5
6
7
8
9
10
11
12
13

íåò
íåò
íåò
íåò
íåò
íåò
íåò
íåò
íåò
íåò
íåò
íåò
íåò

â
â
â
â
â
â
â
â
â
â
â
â
â

áàçå
áàçå
áàçå
áàçå
áàçå
áàçå
áàçå
áàçå
áàçå
áàçå
áàçå
áàçå
áàçå

äàííûõ
äàííûõ
äàííûõ
äàííûõ
äàííûõ
äàííûõ
äàííûõ
äàííûõ
äàííûõ
äàííûõ
äàííûõ
äàííûõ
äàííûõ

Íè îäíîãî òðåêà íåò â áàçå AccurateRip
Êîíåö îò÷¸òà

Sign up to vote on this title
UsefulNot useful