You are on page 1of 13

Exact Audio Copy V0.99 prebeta 4 from 23.

January 2008
EAC extraction logfile from 30. May 2008, 19:17
Herbet Von Karajan 1963 / Beethoven Symphonies CD1
Used drive : ATAPI DVD A DH20A3H Adapter: 1 ID: 1
Read mode : Secure
Utilize accurate stream : Yes
Defeat audio cache : Yes
Make use of C2 pointers : No
Read offset correction : 6
Overread into Lead-In and Lead-Out : No
Fill up missing offset samples with silence : Yes
Delete leading and trailing silent blocks : No
Null samples used in CRC calculations : Yes
Used interface : Installed external ASPI interface
Gap handling : Appended to previous track
Used output format : User Defined Encoder
Selected bitrate : 768 kBit/s
Quality : High
Add ID3 tag : No
Command line compressor : C:\Program Files\Exact Audio Copy\flac.exe
Additional command line options : -V -8 -T "artist=%a" -T "title=%t" -T "album=%
g" -T "date=%y" -T "tracknumber=%n" -T "genre=%m" %s
TOC of the extracted CD
Track | Start | Length | Start sector | End sector
---------------------------------------------------------
1 | 0:00.00 | 9:34.00 | 0 | 43049
2 | 9:34.00 | 5:54.00 | 43050 | 69599
3 | 15:28.00 | 3:58.00 | 69600 | 87449
4 | 19:26.00 | 5:51.00 | 87450 | 113774
5 | 25:17.00 | 14:46.00 | 113775 | 180224
6 | 40:03.00 | 17:06.00 | 180225 | 257174
7 | 57:09.00 | 5:47.00 | 257175 | 283199
8 | 62:56.00 | 12:20.00 | 283200 | 338699
Track 1
Filename D:\Downloads\Beethoven - Complete Edition Vol. 1 Symphonies (1997)
[FLAC]\CD 1\01 - Symphony No. 1 In C, Op. 21 - I. Adagio Molto - Allegro Con Br
io.wav
Pre-gap length 0:00:02.00
Peak level 87.7 %
Track quality 100.0 %
Test CRC 46005659
Copy CRC 46005659
Accurately ripped (confidence 4) [7F2811D6]
Copy OK
Track 2
Filename D:\Downloads\Beethoven - Complete Edition Vol. 1 Symphonies (1997)
[FLAC]\CD 1\02 - Symphony No. 1 In C, Op. 21 - II. Andante Cantabile Con Molto.
wav
Peak level 73.1 %
Track quality 99.9 %
Test CRC F8EAE226
Copy CRC F8EAE226
Accurately ripped (confidence 4) [0F4907C7]
Copy OK
Track 3
Filename D:\Downloads\Beethoven - Complete Edition Vol. 1 Symphonies (1997)
[FLAC]\CD 1\03 - Symphony No. 1 In C, Op. 21 - III. Menuetto. Allegro Molto E V
ivace.wav
Peak level 78.3 %
Track quality 100.0 %
Test CRC 95F50335
Copy CRC 95F50335
Accurately ripped (confidence 4) [BA72DA9E]
Copy OK
Track 4
Filename D:\Downloads\Beethoven - Complete Edition Vol. 1 Symphonies (1997)
[FLAC]\CD 1\04 - Symphony No. 1 In C, Op. 21 - IV. Adagio - Allegro Molto E Viv
ace.wav
Peak level 84.6 %
Track quality 99.9 %
Test CRC 3C1BB4D5
Copy CRC 3C1BB4D5
Accurately ripped (confidence 4) [0C18BAEC]
Copy OK
Track 5
Filename D:\Downloads\Beethoven - Complete Edition Vol. 1 Symphonies (1997)
[FLAC]\CD 1\05 - Symphony No. 3 In E Flat, Op. 55 'Eroica' - I. Allegro Con Bri
o.wav
Pre-gap length 0:00:08.00
Peak level 93.3 %
Track quality 100.0 %
Test CRC B524DA0B
Copy CRC B524DA0B
Accurately ripped (confidence 4) [EAA67AE4]
Copy OK
Track 6
Filename D:\Downloads\Beethoven - Complete Edition Vol. 1 Symphonies (1997)
[FLAC]\CD 1\06 - Symphony No. 3 In E Flat, Op. 55 'Eroica' - II. Marcia Funebre
. Adagio Assai.wav
Peak level 93.9 %
Track quality 100.0 %
Test CRC 46AFC8B7
Copy CRC 46AFC8B7
Accurately ripped (confidence 4) [7B0FE02B]
Copy OK
Track 7
Filename D:\Downloads\Beethoven - Complete Edition Vol. 1 Symphonies (1997)
[FLAC]\CD 1\07 - Symphony No. 3 In E Flat, Op. 55 'Eroica' - III. Scherzo. Alle
gro Vivace.wav
Peak level 98.5 %
Track quality 99.9 %
Test CRC DAC99DEE
Copy CRC DAC99DEE
Accurately ripped (confidence 4) [C5C7D649]
Copy OK
Track 8
Filename D:\Downloads\Beethoven - Complete Edition Vol. 1 Symphonies (1997)
[FLAC]\CD 1\08 - Symphony No. 3 In E Flat, Op. 55 'Eroica' - IV. Finale. Allegr
o Molto.wav
Peak level 95.3 %
Track quality 100.0 %
Test CRC BF82D773
Copy CRC BF82D773
Accurately ripped (confidence 4) [E716E7F9]
Copy OK
All tracks accurately ripped
No errors occurred
End of status report
Exact Audio Copy V0.99 prebeta 4 from 23. January 2008
EAC extraction logfile from 30. May 2008, 19:57
Ludwig Van Beethoven / Nine Symphonies (Karajan) - Disc 2
Used drive : ATAPI DVD A DH20A3H Adapter: 1 ID: 1
Read mode : Secure
Utilize accurate stream : Yes
Defeat audio cache : Yes
Make use of C2 pointers : No
Read offset correction : 6
Overread into Lead-In and Lead-Out : No
Fill up missing offset samples with silence : Yes
Delete leading and trailing silent blocks : No
Null samples used in CRC calculations : Yes
Used interface : Installed external ASPI interface
Gap handling : Appended to previous track
Used output format : User Defined Encoder
Selected bitrate : 768 kBit/s
Quality : High
Add ID3 tag : No
Command line compressor : C:\Program Files\Exact Audio Copy\flac.exe
Additional command line options : -V -8 -T "artist=%a" -T "title=%t" -T "album=%
g" -T "date=%y" -T "tracknumber=%n" -T "genre=%m" %s
TOC of the extracted CD
Track | Start | Length | Start sector | End sector
---------------------------------------------------------
1 | 0:00.00 | 10:19.00 | 0 | 46424
2 | 10:19.00 | 10:35.00 | 46425 | 94049
3 | 20:54.00 | 3:53.00 | 94050 | 111524
4 | 24:47.00 | 6:29.00 | 111525 | 140699
5 | 31:16.00 | 9:52.00 | 140700 | 185099
6 | 41:08.00 | 9:58.00 | 185100 | 229949
7 | 51:06.00 | 5:44.00 | 229950 | 255749
8 | 56:50.00 | 5:24.00 | 255750 | 280049
Track 1
Filename D:\Downloads\Beethoven - Complete Edition Vol. 1 Symphonies (1997)
[FLAC]\CD 2\01 - Symphony No 2 In D Major Op 36; 1. Adagio, Allegro Con Brio.wa
v
Pre-gap length 0:00:02.00
Peak level 87.8 %
Track quality 100.0 %
Test CRC 4BD70846
Copy CRC 4BD70846
Accurately ripped (confidence 4) [8B24476A]
Copy OK
Track 2
Filename D:\Downloads\Beethoven - Complete Edition Vol. 1 Symphonies (1997)
[FLAC]\CD 2\02 - Symphony No 2 In D Major Op 36; 2. Largetto.wav
Peak level 90.9 %
Track quality 100.0 %
Test CRC B5D71D24
Copy CRC B5D71D24
Accurately ripped (confidence 4) [D2F9E10F]
Copy OK
Track 3
Filename D:\Downloads\Beethoven - Complete Edition Vol. 1 Symphonies (1997)
[FLAC]\CD 2\03 - Symphony No 2 In D Major Op 36; 3. Scherzo. Allegro.wav
Peak level 91.5 %
Track quality 100.0 %
Test CRC 95107F0A
Copy CRC 95107F0A
Accurately ripped (confidence 4) [11FBC1FB]
Copy OK
Track 4
Filename D:\Downloads\Beethoven - Complete Edition Vol. 1 Symphonies (1997)
[FLAC]\CD 2\04 - Symphony No 2 In D Major Op 36; 4. Allegro Molto.wav
Peak level 94.1 %
Track quality 100.0 %
Test CRC EC8D89AE
Copy CRC EC8D89AE
Accurately ripped (confidence 4) [51AE659C]
Copy OK
Track 5
Filename D:\Downloads\Beethoven - Complete Edition Vol. 1 Symphonies (1997)
[FLAC]\CD 2\05 - Symphony No 4 In B Flat Major Op 60; 1. Adagio, Allegro Vivace
.wav
Pre-gap length 0:00:10.00
Peak level 94.6 %
Track quality 100.0 %
Test CRC 0CEF4FF1
Copy CRC 0CEF4FF1
Accurately ripped (confidence 4) [D0CDC6E0]
Copy OK
Track 6
Filename D:\Downloads\Beethoven - Complete Edition Vol. 1 Symphonies (1997)
[FLAC]\CD 2\06 - Symphony No 4 In B Flat Major Op 60; 2. Adagio.wav
Peak level 78.9 %
Track quality 100.0 %
Test CRC 00FFE4B8
Copy CRC 00FFE4B8
Accurately ripped (confidence 4) [9D773E98]
Copy OK
Track 7
Filename D:\Downloads\Beethoven - Complete Edition Vol. 1 Symphonies (1997)
[FLAC]\CD 2\07 - Symphony No 4 In B Flat Major Op 60; 3. Allegro Vivace.wav
Peak level 86.5 %
Track quality 99.9 %
Test CRC 6BA6D5F0
Copy CRC 6BA6D5F0
Accurately ripped (confidence 4) [D52D731A]
Copy OK
Track 8
Filename D:\Downloads\Beethoven - Complete Edition Vol. 1 Symphonies (1997)
[FLAC]\CD 2\08 - Symphony No 4 In B Flat Major Op 60; 4. Allegro Ma Non Troppo.
wav
Peak level 99.9 %
Track quality 100.0 %
Test CRC B530B01B
Copy CRC B530B01B
Accurately ripped (confidence 4) [AFACE58D]
Copy OK
All tracks accurately ripped
No errors occurred
End of status report
Exact Audio Copy V0.99 prebeta 4 from 23. January 2008
EAC extraction logfile from 30. May 2008, 20:52
Beethoven - Karajan / Symphonies CD 3
Used drive : ATAPI DVD A DH20A3H Adapter: 1 ID: 1
Read mode : Secure
Utilize accurate stream : Yes
Defeat audio cache : Yes
Make use of C2 pointers : No
Read offset correction : 6
Overread into Lead-In and Lead-Out : No
Fill up missing offset samples with silence : Yes
Delete leading and trailing silent blocks : No
Null samples used in CRC calculations : Yes
Used interface : Installed external ASPI interface
Gap handling : Appended to previous track
Used output format : User Defined Encoder
Selected bitrate : 768 kBit/s
Quality : High
Add ID3 tag : No
Command line compressor : C:\Program Files\Exact Audio Copy\flac.exe
Additional command line options : -V -8 -T "artist=%a" -T "title=%t" -T "album=%
g" -T "date=%y" -T "tracknumber=%n" -T "genre=%m" %s
TOC of the extracted CD
Track | Start | Length | Start sector | End sector
---------------------------------------------------------
1 | 0:00.00 | 7:17.00 | 0 | 32774
2 | 7:17.00 | 10:01.00 | 32775 | 77849
3 | 17:18.00 | 4:54.57 | 77850 | 99956
4 | 22:12.57 | 9:07.18 | 99957 | 140999
5 | 31:20.00 | 9:02.00 | 141000 | 181649
6 | 40:22.00 | 11:30.00 | 181650 | 233399
7 | 51:52.00 | 3:00.52 | 233400 | 246951
8 | 54:52.52 | 3:25.40 | 246952 | 262366
9 | 58:18.17 | 8:49.58 | 262367 | 302099
Track 1
Filename D:\Downloads\Beethoven - Complete Edition Vol. 1 Symphonies (1997)
[FLAC]\CD 3\01 - Symphonie No.5 c-moll, op.67 Schicksals-Symphonie - I. Allegro
con brio.wav
Pre-gap length 0:00:02.00
Peak level 99.9 %
Track quality 99.9 %
Test CRC 113F9C30
Copy CRC 113F9C30
Accurately ripped (confidence 4) [E636FCE5]
Copy OK
Track 2
Filename D:\Downloads\Beethoven - Complete Edition Vol. 1 Symphonies (1997)
[FLAC]\CD 3\02 - Symphonie No.5 c-moll, op.67 Schicksals-Symphonie - II. Andant
e con moto.wav
Peak level 86.6 %
Track quality 99.9 %
Test CRC A87737A4
Copy CRC A87737A4
Accurately ripped (confidence 4) [56253A30]
Copy OK
Track 3
Filename D:\Downloads\Beethoven - Complete Edition Vol. 1 Symphonies (1997)
[FLAC]\CD 3\03 - Symphonie No.5 c-moll, op.67 Schicksals-Symphonie - III. Alleg
ro.wav
Peak level 85.8 %
Track quality 100.0 %
Test CRC 599D0947
Copy CRC 599D0947
Accurately ripped (confidence 4) [885A759C]
Copy OK
Track 4
Filename D:\Downloads\Beethoven - Complete Edition Vol. 1 Symphonies (1997)
[FLAC]\CD 3\04 - Symphonie No.5 c-moll, op.67 Schicksals-Symphonie - IV. Allegr
o.wav
Peak level 99.9 %
Track quality 99.9 %
Test CRC D336BE38
Copy CRC D336BE38
Accurately ripped (confidence 4) [553709EC]
Copy OK
Track 5
Filename D:\Downloads\Beethoven - Complete Edition Vol. 1 Symphonies (1997)
[FLAC]\CD 3\05 - Symphonie No.6 F-Dur, op.68 Pastorale - I. Allegro ma non trop
po.wav
Pre-gap length 0:00:13.00
Peak level 92.1 %
Track quality 100.0 %
Test CRC 99C01D97
Copy CRC 99C01D97
Accurately ripped (confidence 4) [726BC70E]
Copy OK
Track 6
Filename D:\Downloads\Beethoven - Complete Edition Vol. 1 Symphonies (1997)
[FLAC]\CD 3\06 - Symphonie No.6 F-Dur, op.68 Pastorale - II. Szene am Bach (And
ante molto moto).wav
Peak level 52.5 %
Track quality 100.0 %
Test CRC 0A9A224B
Copy CRC 0A9A224B
Accurately ripped (confidence 4) [86285B9D]
Copy OK
Track 7
Filename D:\Downloads\Beethoven - Complete Edition Vol. 1 Symphonies (1997)
[FLAC]\CD 3\07 - Symphonie No.6 F-Dur, op.68 Pastorale - III. Lustiges Zusammen
sein der Landleute (Allegro).wav
Peak level 82.5 %
Track quality 100.0 %
Test CRC 71A1103F
Copy CRC 71A1103F
Accurately ripped (confidence 4) [5F823AA9]
Copy OK
Track 8
Filename D:\Downloads\Beethoven - Complete Edition Vol. 1 Symphonies (1997)
[FLAC]\CD 3\08 - Symphonie No.6 F-Dur, op.68 Pastorale - IV. Gewitter, Sturm (A
llegro).wav
Peak level 99.9 %
Track quality 99.9 %
Test CRC 51AAC939
Copy CRC 51AAC939
Accurately ripped (confidence 4) [A0323059]
Copy OK
Track 9
Filename D:\Downloads\Beethoven - Complete Edition Vol. 1 Symphonies (1997)
[FLAC]\CD 3\09 - Symphonie No.6 F-Dur, op.68 Pastorale - V. Allegretto.wav
Peak level 87.3 %
Track quality 100.0 %
Test CRC E82C1072
Copy CRC E82C1072
Accurately ripped (confidence 4) [11E65294]
Copy OK
All tracks accurately ripped
No errors occurred
End of status report
Exact Audio Copy V0.99 prebeta 4 from 23. January 2008
EAC extraction logfile from 30. May 2008, 21:20
Ludwig Van Beethoven / Nine Symphonies (Karajan) - Disc 4
Used drive : ATAPI DVD A DH20A3H Adapter: 1 ID: 1
Read mode : Secure
Utilize accurate stream : Yes
Defeat audio cache : Yes
Make use of C2 pointers : No
Read offset correction : 6
Overread into Lead-In and Lead-Out : No
Fill up missing offset samples with silence : Yes
Delete leading and trailing silent blocks : No
Null samples used in CRC calculations : Yes
Used interface : Installed external ASPI interface
Gap handling : Appended to previous track
Used output format : User Defined Encoder
Selected bitrate : 768 kBit/s
Quality : High
Add ID3 tag : No
Command line compressor : C:\Program Files\Exact Audio Copy\flac.exe
Additional command line options : -V -8 -T "artist=%a" -T "title=%t" -T "album=%
g" -T "date=%y" -T "tracknumber=%n" -T "genre=%m" %s
TOC of the extracted CD
Track | Start | Length | Start sector | End sector
---------------------------------------------------------
1 | 0:00.32 | 11:25.00 | 32 | 51406
2 | 11:25.32 | 8:02.00 | 51407 | 87556
3 | 19:27.32 | 7:50.00 | 87557 | 122806
4 | 27:17.32 | 6:47.00 | 122807 | 153331
5 | 34:04.32 | 9:22.00 | 153332 | 195481
6 | 43:26.32 | 3:57.00 | 195482 | 213256
7 | 47:23.32 | 5:57.00 | 213257 | 240031
8 | 53:20.32 | 7:09.00 | 240032 | 272206
Track 1
Filename D:\Downloads\Beethoven - Complete Edition Vol. 1 Symphonies (1997)
[FLAC]\CD 4\01 - Symphony 7- 1 Poco Sostenuto - Vivace.wav
Pre-gap length 0:00:02.42
Peak level 99.9 %
Track quality 100.0 %
Test CRC 5D5BEB85
Copy CRC 5D5BEB85
Accurately ripped (confidence 4) [4656487F]
Copy OK
Track 2
Filename D:\Downloads\Beethoven - Complete Edition Vol. 1 Symphonies (1997)
[FLAC]\CD 4\02 - Symphony 7- 2 Allegretto.wav
Peak level 95.8 %
Track quality 100.0 %
Test CRC 1CD008C4
Copy CRC 1CD008C4
Accurately ripped (confidence 4) [CE9A923F]
Copy OK
Track 3
Filename D:\Downloads\Beethoven - Complete Edition Vol. 1 Symphonies (1997)
[FLAC]\CD 4\03 - Symphony 7- 3 Presto.wav
Peak level 99.9 %
Track quality 100.0 %
Test CRC 1B14E152
Copy CRC 1B14E152
Accurately ripped (confidence 4) [B0110DE4]
Copy OK
Track 4
Filename D:\Downloads\Beethoven - Complete Edition Vol. 1 Symphonies (1997)
[FLAC]\CD 4\04 - Symphony 7- 4 Allegro Con Brio.wav
Peak level 99.9 %
Track quality 100.0 %
Test CRC 5E80537C
Copy CRC 5E80537C
Accurately ripped (confidence 4) [5384A649]
Copy OK
Track 5
Filename D:\Downloads\Beethoven - Complete Edition Vol. 1 Symphonies (1997)
[FLAC]\CD 4\05 - Symphony 8- 1 Allegro Vivace I Con Brio.wav
Pre-gap length 0:00:08.00
Peak level 99.9 %
Track quality 100.0 %
Test CRC 2A5E20A9
Copy CRC 2A5E20A9
Accurately ripped (confidence 4) [28EAAE65]
Copy OK
Track 6
Filename D:\Downloads\Beethoven - Complete Edition Vol. 1 Symphonies (1997)
[FLAC]\CD 4\06 - Symphony 8- 2 Allegretto Scherzando.wav
Peak level 63.9 %
Track quality 100.0 %
Test CRC EB23343C
Copy CRC EB23343C
Accurately ripped (confidence 4) [9D19D291]
Copy OK
Track 7
Filename D:\Downloads\Beethoven - Complete Edition Vol. 1 Symphonies (1997)
[FLAC]\CD 4\07 - Symphony 8- 3 Tempo Di Menuetto.wav
Peak level 79.9 %
Track quality 100.0 %
Test CRC 4E6D03B4
Copy CRC 4E6D03B4
Accurately ripped (confidence 4) [81D4E00D]
Copy OK
Track 8
Filename D:\Downloads\Beethoven - Complete Edition Vol. 1 Symphonies (1997)
[FLAC]\CD 4\08 - Symphony 8- 4 Allegro Vivace.wav
Peak level 99.9 %
Track quality 100.0 %
Test CRC 25D86CD2
Copy CRC 25D86CD2
Accurately ripped (confidence 4) [77812DE1]
Copy OK
All tracks accurately ripped
No errors occurred
End of status report
Exact Audio Copy V0.99 prebeta 4 from 23. January 2008
EAC extraction logfile from 31. May 2008, 0:30
Beethoven / Symphonies CD 5
Used drive : ATAPI DVD A DH20A3H Adapter: 1 ID: 1
Read mode : Secure
Utilize accurate stream : Yes
Defeat audio cache : Yes
Make use of C2 pointers : No
Read offset correction : 6
Overread into Lead-In and Lead-Out : No
Fill up missing offset samples with silence : Yes
Delete leading and trailing silent blocks : No
Null samples used in CRC calculations : Yes
Used interface : Installed external ASPI interface
Gap handling : Appended to previous track
Used output format : User Defined Encoder
Selected bitrate : 768 kBit/s
Quality : High
Add ID3 tag : No
Command line compressor : C:\Program Files\Exact Audio Copy\flac.exe
Additional command line options : -V -8 -T "artist=%a" -T "title=%t" -T "album=%
g" -T "date=%y" -T "tracknumber=%n" -T "genre=%m" %s
TOC of the extracted CD
Track | Start | Length | Start sector | End sector
---------------------------------------------------------
1 | 0:00.32 | 9:11.00 | 32 | 41356
2 | 9:11.32 | 15:28.00 | 41357 | 110956
3 | 24:39.32 | 11:00.00 | 110957 | 160456
4 | 35:39.32 | 16:25.00 | 160457 | 234331
5 | 52:04.32 | 6:22.05 | 234332 | 262986
6 | 58:26.37 | 17:31.70 | 262987 | 341881
Track 1
Filename D:\Downloads\Beethoven - Complete Edition Vol. 1 Symphonies (1997)
[FLAC]\CD 5\01 - Overture 'Coriolan' Op. 62.wav
Pre-gap length 0:00:02.42
Peak level 87.7 %
Track quality 100.0 %
Test CRC 25FC9D78
Copy CRC 25FC9D78
Accurately ripped (confidence 4) [4E7CE4FA]
Copy OK
Track 2
Filename D:\Downloads\Beethoven - Complete Edition Vol. 1 Symphonies (1997)
[FLAC]\CD 5\02 - Symphony No. 9 - I. Allegro Ma Non Troppo, Un Poco Maestoso.wa
v
Pre-gap length 0:00:11.00
Peak level 95.1 %
Track quality 100.0 %
Test CRC 341D77B4
Copy CRC 341D77B4
Accurately ripped (confidence 4) [6A614AF6]
Copy OK
Track 3
Filename D:\Downloads\Beethoven - Complete Edition Vol. 1 Symphonies (1997)
[FLAC]\CD 5\03 - Symphony No. 9 - II. Molto Vivace.wav
Peak level 97.1 %
Track quality 100.0 %
Test CRC A90DD4CC
Copy CRC A90DD4CC
Accurately ripped (confidence 4) [F0C823DE]
Copy OK
Track 4
Filename D:\Downloads\Beethoven - Complete Edition Vol. 1 Symphonies (1997)
[FLAC]\CD 5\04 - Symphony No. 9 - III- Adagio Molto E Cantabile.wav
Peak level 77.6 %
Track quality 100.0 %
Test CRC 201482E1
Copy CRC 201482E1
Accurately ripped (confidence 3) [787FA5F6]
Copy OK
Track 5
Filename D:\Downloads\Beethoven - Complete Edition Vol. 1 Symphonies (1997)
[FLAC]\CD 5\05 - Symphony No. 9 - IV. Presto.wav
Peak level 93.8 %
Track quality 100.0 %
Test CRC C21FA1CE
Copy CRC C21FA1CE
Accurately ripped (confidence 4) [3F8485B2]
Copy OK
Track 6
Filename D:\Downloads\Beethoven - Complete Edition Vol. 1 Symphonies (1997)
[FLAC]\CD 5\06 - Symphonie No. 9 - V- Presto - 'O Freunde Nicht Diese Tone'.wav
Peak level 96.4 %
Track quality 100.0 %
Test CRC 1A6837E8
Copy CRC 1A6837E8
Accurately ripped (confidence 3) [AA1F8D27]
Copy OK
All tracks accurately ripped
No errors occurred
End of status report