You are on page 1of 7

Exact Audio Copy V0.99 prebeta 4 from 23.

January 2008
EAC extraction logfile from 13. May 2008, 6:55
Complete Beethoven Edition Vol. 15 / Wind Music CD1
Used drive : ATAPI DVD A DH20A3H Adapter: 1 ID: 1
Read mode : Secure
Utilize accurate stream : Yes
Defeat audio cache : Yes
Make use of C2 pointers : No
Read offset correction : 6
Overread into Lead-In and Lead-Out : No
Fill up missing offset samples with silence : Yes
Delete leading and trailing silent blocks : No
Null samples used in CRC calculations : Yes
Used interface : Installed external ASPI interface
Gap handling : Appended to previous track
Used output format : User Defined Encoder
Selected bitrate : 768 kBit/s
Quality : High
Add ID3 tag : No
Command line compressor : C:\Program Files\Exact Audio Copy\flac.exe
Additional command line options : -V -8 -T "artist=%a" -T "title=%t" -T "album=%
g" -T "date=%y" -T "tracknumber=%n" -T "genre=%m" %s
TOC of the extracted CD
Track | Start | Length | Start sector | End sector
---------------------------------------------------------
1 | 0:00.32 | 7:58.00 | 32 | 35881
2 | 7:58.32 | 6:52.00 | 35882 | 66781
3 | 14:50.32 | 3:43.00 | 66782 | 83506
4 | 18:33.32 | 3:52.00 | 83507 | 100906
5 | 22:25.32 | 6:28.00 | 100907 | 130006
6 | 28:53.32 | 10:44.00 | 130007 | 178306
7 | 39:37.32 | 5:11.00 | 178307 | 201631
8 | 44:48.32 | 3:02.00 | 201632 | 215281
9 | 47:50.32 | 4:52.00 | 215282 | 237181
10 | 52:42.32 | 9:34.00 | 237182 | 280231
Track 1
Filename D:\Downloads\Beethoven - Complete Edition Vol. 15 Wind Music (1997
) [FLAC]\CD 1\01 - Octet in Eb, Op.103 - Allegro.wav
Pre-gap length 0:00:02.42
Peak level 90.5 %
Track quality 100.0 %
Test CRC 8CAE1C9D
Copy CRC 8CAE1C9D
Accurately ripped (confidence 4) [A1D4BB01]
Copy OK
Track 2
Filename D:\Downloads\Beethoven - Complete Edition Vol. 15 Wind Music (1997
) [FLAC]\CD 1\02 - Octet in Eb, Op.103 - Andante.wav
Peak level 78.0 %
Track quality 100.0 %
Test CRC 9B7035BE
Copy CRC 9B7035BE
Accurately ripped (confidence 4) [E84ED9BD]
Copy OK
Track 3
Filename D:\Downloads\Beethoven - Complete Edition Vol. 15 Wind Music (1997
) [FLAC]\CD 1\03 - Octet in Eb, Op.103 - Menuetto.wav
Peak level 89.0 %
Track quality 100.0 %
Test CRC CA320392
Copy CRC CA320392
Accurately ripped (confidence 4) [EF71D998]
Copy OK
Track 4
Filename D:\Downloads\Beethoven - Complete Edition Vol. 15 Wind Music (1997
) [FLAC]\CD 1\04 - Octet in Eb Op.103 - Finale, Presto.wav
Peak level 99.9 %
Track quality 100.0 %
Test CRC ED90DFD0
Copy CRC ED90DFD0
Accurately ripped (confidence 4) [24C25FAA]
Copy OK
Track 5
Filename D:\Downloads\Beethoven - Complete Edition Vol. 15 Wind Music (1997
) [FLAC]\CD 1\05 - Rondo in Eb, WoO 25 - Andante.wav
Pre-gap length 0:00:07.98
Peak level 87.0 %
Track quality 100.0 %
Test CRC 9BA0DC3C
Copy CRC 9BA0DC3C
Accurately ripped (confidence 4) [8895BAD5]
Copy OK
Track 6
Filename D:\Downloads\Beethoven - Complete Edition Vol. 15 Wind Music (1997
) [FLAC]\CD 1\06 - Trio in C Op.87 - Allegro.wav
Pre-gap length 0:00:03.98
Peak level 67.2 %
Track quality 100.0 %
Test CRC D013C025
Copy CRC D013C025
Accurately ripped (confidence 4) [C63128F7]
Copy OK
Track 7
Filename D:\Downloads\Beethoven - Complete Edition Vol. 15 Wind Music (1997
) [FLAC]\CD 1\07 - Trio in C Op.87 - Adagio cantabile.wav
Peak level 53.5 %
Track quality 100.0 %
Test CRC 8268897B
Copy CRC 8268897B
Accurately ripped (confidence 4) [0912CB8B]
Copy OK
Track 8
Filename D:\Downloads\Beethoven - Complete Edition Vol. 15 Wind Music (1997
) [FLAC]\CD 1\08 - Trio in C Op.87 - Menuetto, Allegro molto, Scherzo.wav
Peak level 61.0 %
Track quality 100.0 %
Test CRC 1B4E56E8
Copy CRC 1B4E56E8
Accurately ripped (confidence 4) [B9CECDFE]
Copy OK
Track 9
Filename D:\Downloads\Beethoven - Complete Edition Vol. 15 Wind Music (1997
) [FLAC]\CD 1\09 - Trio in C Op.87 - Finale, Presto.wav
Peak level 61.3 %
Track quality 100.0 %
Test CRC 53CF3E0F
Copy CRC 53CF3E0F
Accurately ripped (confidence 4) [6AE7AF6C]
Copy OK
Track 10
Filename D:\Downloads\Beethoven - Complete Edition Vol. 15 Wind Music (1997
) [FLAC]\CD 1\10 - Variations on Mozart's Don Giovanni WoO 28.wav
Pre-gap length 0:00:03.98
Peak level 71.1 %
Track quality 100.0 %
Test CRC 4846B05B
Copy CRC 4846B05B
Accurately ripped (confidence 4) [119D25C2]
Copy OK
All tracks accurately ripped
No errors occurred
End of status report
Exact Audio Copy V0.99 prebeta 4 from 23. January 2008
EAC extraction logfile from 13. May 2008, 7:36
Complete Beethoven Edition Vol. 15 / Wind Works CD 2
Used drive : ATAPI DVD A DH20A3H Adapter: 1 ID: 1
Read mode : Secure
Utilize accurate stream : Yes
Defeat audio cache : Yes
Make use of C2 pointers : No
Read offset correction : 6
Overread into Lead-In and Lead-Out : No
Fill up missing offset samples with silence : Yes
Delete leading and trailing silent blocks : No
Null samples used in CRC calculations : Yes
Used interface : Installed external ASPI interface
Gap handling : Appended to previous track
Used output format : User Defined Encoder
Selected bitrate : 768 kBit/s
Quality : High
Add ID3 tag : No
Command line compressor : C:\Program Files\Exact Audio Copy\flac.exe
Additional command line options : -V -8 -T "artist=%a" -T "title=%t" -T "album=%
g" -T "date=%y" -T "tracknumber=%n" -T "genre=%m" %s
TOC of the extracted CD
Track | Start | Length | Start sector | End sector
---------------------------------------------------------
1 | 0:00.32 | 9:30.00 | 32 | 42781
2 | 9:30.32 | 4:24.00 | 42782 | 62581
3 | 13:54.32 | 2:56.00 | 62582 | 75781
4 | 16:50.32 | 4:00.00 | 75782 | 93781
5 | 20:50.32 | 1:53.00 | 93782 | 102256
6 | 22:43.32 | 1:03.00 | 102257 | 106981
7 | 23:46.32 | 1:42.00 | 106982 | 114631
8 | 25:28.32 | 1:17.00 | 114632 | 120406
9 | 26:45.32 | 1:30.00 | 120407 | 127156
10 | 28:15.32 | 2:45.00 | 127157 | 139531
11 | 31:00.32 | 1:35.00 | 139532 | 146656
12 | 32:35.32 | 3:54.00 | 146657 | 164206
13 | 36:29.32 | 1:50.00 | 164207 | 172456
14 | 38:19.32 | 7:24.00 | 172457 | 205756
Track 1
Filename D:\Downloads\Beethoven - Complete Edition Vol. 15 Wind Music (1997
) [FLAC]\CD 2\01 - Sextett Op. 71 - Adagio Allegro.wav
Pre-gap length 0:00:02.42
Peak level 56.0 %
Track quality 100.0 %
Test CRC 02FE2070
Copy CRC 02FE2070
Accurately ripped (confidence 4) [00214B98]
Copy OK
Track 2
Filename D:\Downloads\Beethoven - Complete Edition Vol. 15 Wind Music (1997
) [FLAC]\CD 2\02 - Sextett Op. 71 - Adagio.wav
Peak level 26.0 %
Track quality 99.9 %
Test CRC 61FE2818
Copy CRC 61FE2818
Accurately ripped (confidence 4) [B309FBA9]
Copy OK
Track 3
Filename D:\Downloads\Beethoven - Complete Edition Vol. 15 Wind Music (1997
) [FLAC]\CD 2\03 - Sextett Op. 71 - Menuetto Quasi Allegretto.wav
Peak level 52.3 %
Track quality 99.9 %
Test CRC F8404D59
Copy CRC F8404D59
Accurately ripped (confidence 4) [DB1270B0]
Copy OK
Track 4
Filename D:\Downloads\Beethoven - Complete Edition Vol. 15 Wind Music (1997
) [FLAC]\CD 2\04 - Sextett Op. 71 - Rondo Allegro.wav
Peak level 56.0 %
Track quality 100.0 %
Test CRC 97D4CD83
Copy CRC 97D4CD83
Accurately ripped (confidence 4) [CBE62B85]
Copy OK
Track 5
Filename D:\Downloads\Beethoven - Complete Edition Vol. 15 Wind Music (1997
) [FLAC]\CD 2\05 - Drei Equale fur 4 Posaunen - Andante.wav
Pre-gap length 0:00:08.00
Peak level 44.7 %
Track quality 100.0 %
Test CRC 85FB8356
Copy CRC 85FB8356
Accurately ripped (confidence 4) [2BFA24AB]
Copy OK
Track 6
Filename D:\Downloads\Beethoven - Complete Edition Vol. 15 Wind Music (1997
) [FLAC]\CD 2\06 - Drei Equale fur 4 Posaunen - Poco Adagio.wav
Peak level 55.6 %
Track quality 100.0 %
Test CRC 6FC9C550
Copy CRC 6FC9C550
Accurately ripped (confidence 4) [CDBEA905]
Copy OK
Track 7
Filename D:\Downloads\Beethoven - Complete Edition Vol. 15 Wind Music (1997
) [FLAC]\CD 2\07 - Drei Equale fur 4 Posaunen - Poco Sostenuto.wav
Peak level 55.1 %
Track quality 100.0 %
Test CRC E50926E9
Copy CRC E50926E9
Accurately ripped (confidence 4) [62376345]
Copy OK
Track 8
Filename D:\Downloads\Beethoven - Complete Edition Vol. 15 Wind Music (1997
) [FLAC]\CD 2\08 - Marsch WoO 29.wav
Pre-gap length 0:00:08.00
Peak level 41.8 %
Track quality 100.0 %
Test CRC 55CB11DF
Copy CRC 55CB11DF
Accurately ripped (confidence 4) [068CAA61]
Copy OK
Track 9
Filename D:\Downloads\Beethoven - Complete Edition Vol. 15 Wind Music (1997
) [FLAC]\CD 2\09 - York'scher Marsch WoO 18.wav
Peak level 92.5 %
Track quality 99.8 %
Test CRC 779222CD
Copy CRC 779222CD
Accurately ripped (confidence 4) [B2F4BB6F]
Copy OK
Track 10
Filename D:\Downloads\Beethoven - Complete Edition Vol. 15 Wind Music (1997
) [FLAC]\CD 2\10 - Polonaise WoO 21.wav
Peak level 38.0 %
Track quality 100.0 %
Test CRC 31772F9A
Copy CRC 31772F9A
Accurately ripped (confidence 4) [694F1D3C]
Copy OK
Track 11
Filename D:\Downloads\Beethoven - Complete Edition Vol. 15 Wind Music (1997
) [FLAC]\CD 2\11 - Ecossaise WoO 22.wav
Peak level 66.3 %
Track quality 100.0 %
Test CRC DD335DF5
Copy CRC DD335DF5
Accurately ripped (confidence 4) [111CF734]
Copy OK
Track 12
Filename D:\Downloads\Beethoven - Complete Edition Vol. 15 Wind Music (1997
) [FLAC]\CD 2\12 - Marsch und Trio WoO 18 'Zapfenstreich'.wav
Peak level 99.4 %
Track quality 100.0 %
Test CRC 2E599153
Copy CRC 2E599153
Accurately ripped (confidence 4) [5A468901]
Copy OK
Track 13
Filename D:\Downloads\Beethoven - Complete Edition Vol. 15 Wind Music (1997
) [FLAC]\CD 2\13 - Marsch WoO 19.wav
Peak level 91.8 %
Track quality 100.0 %
Test CRC 55E13729
Copy CRC 55E13729
Accurately ripped (confidence 4) [9D0AD8AB]
Copy OK
Track 14
Filename D:\Downloads\Beethoven - Complete Edition Vol. 15 Wind Music (1997
) [FLAC]\CD 2\14 - Marsch WoO 24.wav
Peak level 92.2 %
Track quality 99.9 %
Test CRC BFE05893
Copy CRC BFE05893
Accurately ripped (confidence 4) [7D5C804B]
Copy OK
All tracks accurately ripped
No errors occurred
End of status report