You are on page 1of 2

General

Complete name : HERO (1983) DVDRip 720p x264 [Hindi A


C-3 5.1 @ 384 Kbps]--prisak~~{HKRG}.mkv
Format : Matroska
Format version : Version 4 / Version 2
File size : 2.55 GiB
Duration : 2h 46mn
Overall bit rate : 2 185 Kbps
Movie name : HERO (1983) DVDRip 720p x264 [Hindi A
C-3 5.1 @ 384 Kbps]--prisak~~{HKRG}
Encoded date : UTC 2014-12-13 15:03:00
Writing application : mkvmerge v7.3.0 ('Nouages') 32bit bui
lt on Oct 22 2014 18:44:01
Writing library : libebml v1.3.0 + libmatroska v1.4.1
DURATION : 02:46:51.776000000
NUMBER_OF_FRAMES : 312868
NUMBER_OF_BYTES : 480565248
_STATISTICS_WRITING_APP : mkvmerge v7.3.0 ('Nouages') 32bit bui
lt on Oct 22 2014 18:44:01
_STATISTICS_WRITING_DATE_UTC : 2014-12-13 15:03:00
_STATISTICS_TAGS : BPS DURATION NUMBER_OF_FRAMES NUMBER_
OF_BYTES
Video
ID : 1
Format : AVC
Format/Info : Advanced Video Codec
Format profile : High@L4.1
Format settings, CABAC : Yes
Format settings, ReFrames : 9 frames
Codec ID : V_MPEG4/ISO/AVC
Duration : 2h 46mn
Bit rate : 1 799 Kbps
Width : 1 280 pixels
Height : 720 pixels
Display aspect ratio : 16:9
Frame rate mode : Constant
Frame rate : 29.970 fps
Color space : YUV
Chroma subsampling : 4:2:0
Bit depth : 8 bits
Scan type : Progressive
Bits/(Pixel*Frame) : 0.065
Stream size : 2.05 GiB (80%)
Title : HERO (1983) DVDRip 720p x264 [Hindi A
C-3 5.1 @ 384 Kbps]--prisak~~{HKRG}
Writing library : x264 core 142 r2491kMod 24e4fed
Encoding settings : cabac=1 / ref=9 / deblock=1:-3:-3 / a
nalyse=0x3:0x133 / me=tesa / subme=9 / psy=1 / fade_compensate=0.00 / psy_rd=1.0
0:0.00 / mixed_ref=1 / me_range=32 / chroma_me=1 / trellis=2 / 8x8dct=1 / cqm=0
/ deadzone=21,11 / fast_pskip=0 / chroma_qp_offset=-2 / threads=12 / lookahead_t
hreads=1 / sliced_threads=0 / nr=0 / decimate=1 / interlaced=0 / bluray_compat=0
/ constrained_intra=0 / fgo=0 / bframes=4 / b_pyramid=2 / b_adapt=2 / b_bias=0
/ direct=3 / weightb=1 / open_gop=0 / weightp=2 / keyint=250 / keyint_min=25 / s
cenecut=40 / intra_refresh=0 / rc_lookahead=60 / rc=2pass / mbtree=1 / bitrate=1
799 / ratetol=1.0 / qcomp=0.60 / qpmin=0 / qpmax=69 / qpstep=4 / cplxblur=20.0 /
qblur=0.5 / ip_ratio=1.40 / aq=1:1.00
Language : Hindi
Default : Yes
Forced : No
Audio
ID : 2
Format : AC-3
Format/Info : Audio Coding 3
Mode extension : CM (complete main)
Format settings, Endianness : Big
Codec ID : A_AC3
Duration : 2h 46mn
Bit rate mode : Constant
Bit rate : 384 Kbps
Channel(s) : 6 channels
Channel positions : Front: L C R, Side: L R, LFE
Sampling rate : 48.0 KHz
Bit depth : 16 bits
Compression mode : Lossy
Stream size : 458 MiB (18%)
Title : prisak {{HKRG}}
Language : Hindi
Default : Yes
Forced : No