General

Complete name : Piano For All (vidoes + books) (720p)
Format : MPEG-4
Format profile : Base Media
Codec ID : isom
File size : Variable
Duration : Variable
Overall bit rate mode : Variable
Overall bit rate : 518 Kbps
Encoded date : UTC 2014-08-03 20:38:58
Tagged date : UTC 2014-08-03 20:38:58

Video
ID : 1
Format : AVC
Format/Info : Advanced Video Codec
Format profile : Baseline@L3.1
Format settings, CABAC : No
Format settings, ReFrames : 3 frames
Format settings, GOP : M=1, N=75
Codec ID : avc1
Codec ID/Info : Advanced Video Coding
Duration : 36s 267ms
Bit rate : 427 Kbps
Maximum bit rate : 811 Kbps
Width : 960 pixels
Height : 720 pixels
Display aspect ratio : 4:3
Frame rate mode : Constant
Frame rate : 30.000 fps
Color space : YUV
Chroma subsampling : 4:2:0
Bit depth : 8 bits
Scan type : Progressive
Bits/(Pixel*Frame) : 0.021
Stream size : 1.85 MiB (82%)
Writing library : Zencoder Video Encoding System
Encoded date : UTC 2014-08-03 20:38:48
Tagged date : UTC 2014-08-03 20:38:58

Audio
ID : 2
Format : AAC
Format/Info : Advanced Audio Codec
Format profile : LC
Codec ID : 40
Duration : 36s 315ms
Bit rate mode : Variable
Bit rate : 88.4 Kbps
Maximum bit rate : 107 Kbps
Channel(s) : 2 channels
Channel positions : Front: L R
Sampling rate : 44.1 KHz
Compression mode : Lossy
Stream size : 392 KiB (17%)
Encoded date : UTC 2014-08-03 20:38:58
Tagged date : UTC 2014-08-03 20:38:58