You are on page 1of 2

[URL=http://imagecurl.com/viewer.php?file=67623027074572251630.

png]
[IMG]http://imagecurl.com/images/67623027074572251630_thumb.png[/IMG][/URL]
[URL=http://imagecurl.com/viewer.php?file=43759716392566340691.png]
[IMG]http://imagecurl.com/images/43759716392566340691_thumb.png[/IMG][/URL]
[URL=http://imagecurl.com/viewer.php?file=69095534392727193952.png]
[IMG]http://imagecurl.com/images/69095534392727193952_thumb.png[/IMG][/URL]
[URL=http://imagecurl.com/viewer.php?file=85399848511340463082.png]
[IMG]http://imagecurl.com/images/85399848511340463082_thumb.png[/IMG][/URL]
[URL=http://imagecurl.com/viewer.php?file=33907614233396133519.png]
[IMG]http://imagecurl.com/images/33907614233396133519_thumb.png[/IMG][/URL]
[URL=http://imagecurl.com/viewer.php?file=29548870873538142884.png]
[IMG]http://imagecurl.com/images/29548870873538142884_thumb.png[/IMG][/URL]

[mediainfo]
Video
ID : 1
Format : AVC
Format/Info : Advanced Video Codec
Format profile : High@L4.1
Format settings, CABAC : Yes
Format settings, ReFrames : 4 frames
Codec ID : V_MPEG4/ISO/AVC
Duration : 44mn 37s
Bit rate : 12.5 Mbps
Width : 1 920 pixels
Height : 1 080 pixels
Display aspect ratio : 16:9
Frame rate mode : Constant
Frame rate : 23.976 fps
Color space : YUV
Chroma subsampling : 4:2:0
Bit depth : 8 bits
Scan type : Progressive
Bits/(Pixel*Frame) : 0.252
Stream size : 3.82 GiB (87%)
Writing library : x264 core 67 r1153 7b6ce6a
Encoding settings : cabac=1 / ref=4 / deblock=1:0:0 /
analyse=0x3:0x133 / me=umh / subme=7 / psy_rd=1.0:0.0 / mixed_ref=1 / me_range=16 /
chroma_me=1 / trellis=1 / 8x8dct=1 / cqm=0 / deadzone=21,11 / chroma_qp_offset=-2 /
threads=6 / nr=0 / decimate=1 / mbaff=0 / bframes=3 / b_pyramid=1 / b_adapt=1 /
b_bias=0 / direct=1 / wpredb=1 / keyint=250 / keyint_min=25 / scenecut=40 /
rc=2pass / bitrate=12520 / ratetol=1.0 / qcomp=0.60 / qpmin=10 / qpmax=51 /
qpstep=4 / cplxblur=20.0 / qblur=0.5 / ip_ratio=1.40 / pb_ratio=1.30 / aq=1:1.00
Language : English
Default : Yes
Forced : No

Audio
ID : 2
Format : DTS
Format/Info : Digital Theater Systems
Mode : 16
Format settings, Endianness : Big
Codec ID : A_DTS
Duration : 44mn 37s
Bit rate mode : Constant
Bit rate : 1 509 Kbps
Channel(s) : 6 channels
Channel positions : Front: L C R, Side: L R, LFE
Sampling rate : 48.0 KHz
Frame rate : 93.750 fps (512 spf)
Bit depth : 16 bits
Compression mode : Lossy
Stream size : 482 MiB (11%)
Language : English
Default : Yes
Forced : No

[/mediainfo]