You are on page 1of 4

ffmpeg version N-69972-g6c91afe Copyright (c) 2000-2015 the FFmpeg developers

built with gcc 4.9 (GCC) 20140827 (prerelease)


ffmpeg4android 2.5_24p6_full_no_x264
libavutil 54. 19.100 / 54. 19.100
libavcodec 56. 25.100 / 56. 25.100
libavformat 56. 23.100 / 56. 23.100
libavdevice 56. 4.100 / 56. 4.100
libavfilter 5. 11.100 / 5. 11.100
libswscale 3. 1.101 / 3. 1.101
libswresample 1. 1.100 / 1. 1.100
libpostproc 53. 3.100 / 53. 3.100
Splitting the commandline.
Reading option '-y' ... matched as option 'y' (overwrite output files) with
argument '1'.
Reading option '-i' ... matched as input file with argument
'/storage/emulated/0/ilona 2.wav'.
Reading option '-acodec' ... matched as option 'acodec' (force audio codec ('copy'
to copy stream)) with argument 'libmp3lame'.
Reading option '-ac' ... matched as option 'ac' (set number of audio channels) with
argument '2'.
Reading option '-ab' ... matched as option 'ab' (audio bitrate (please use -b:a))
with argument '128k'.
Reading option '-ar' ... matched as option 'ar' (set audio sampling rate (in Hz))
with argument '48000'.
Reading option '/storage/emulated/0/ilona 2.mp3' ... matched as output file.
Finished splitting the commandline.
Parsing a group of options: global .
Applying option y (overwrite output files) with argument 1.
Successfully parsed a group of options.
Parsing a group of options: input file /storage/emulated/0/ilona 2.wav.
Successfully parsed a group of options.
Opening an input file: /storage/emulated/0/ilona 2.wav.
Format wav probed with size=2048 and score=99
Before avformat_find_stream_info() pos: 44 bytes read:32768 seeks:0
parser not found for codec pcm_s16le, packets or times may be invalid.
probing stream 0 pp:14
probing stream 0 pp:13
probing stream 0 pp:12
probing stream 0 pp:11
probing stream 0 pp:10
probing stream 0 pp:9
probing stream 0 pp:8
probing stream 0 pp:7
probing stream 0 pp:6
probing stream 0 pp:5
probing stream 0 pp:4
probing stream 0 pp:3
probing stream 0 pp:2
probing stream 0 pp:1
probed stream 0
parser not found for codec pcm_s16le, packets or times may be invalid.
All info found
After avformat_find_stream_info() pos: 204844 bytes read:229376 seeks:0 frames:50
Guessed Channel Layout for Input Stream #0.0 : mono
Input #0, wav, from '/storage/emulated/0/ilona 2.wav':
Duration: 00:02:02.92, bitrate: 352 kb/s
Stream #0:0, 50, 1/22000: Audio: pcm_s16le ([1][0][0][0] / 0x0001), 22000 Hz, 1
channels, s16, 352 kb/s
Successfully opened the file.
Parsing a group of options: output file /storage/emulated/0/ilona 2.mp3.
Applying option acodec (force audio codec ('copy' to copy stream)) with argument
libmp3lame.
Applying option ac (set number of audio channels) with argument 2.
Applying option ab (audio bitrate (please use -b:a)) with argument 128k.
Applying option ar (set audio sampling rate (in Hz)) with argument 48000.
Successfully parsed a group of options.
Opening an output file: /storage/emulated/0/ilona 2.mp3.
Successfully opened the file.
detected 4 logical cores
Setting 'time_base' to value '1/22000'
Setting 'sample_rate' to value '22000'
Setting 'sample_fmt' to value 's16'
Setting 'channel_layout' to value '0x4'
tb:1/22000 samplefmt:s16 samplerate:22000 chlayout:0x4
Setting 'sample_fmts' to value 's32p|fltp|s16p'
Setting 'sample_rates' to value '48000'
Setting 'channel_layouts' to value '0x3'
auto-inserting filter 'auto-inserted resampler 0' between the filter
'Parsed_anull_0' and the filter 'audio format for output stream 0:0'
query_formats: 4 queried, 6 merged, 3 already done, 0 delayed
0.707107
0.707107
ch:1 chl:mono fmt:s16 r:22000Hz -> ch:2 chl:stereo fmt:s16p r:48000Hz
Output #0, mp3, to '/storage/emulated/0/ilona 2.mp3':
Metadata:
TSSE : Lavf56.23.100
Stream #0:0, 0, 1/48000: Audio: mp3 (libmp3lame), 48000 Hz, stereo, s16p, 128
kb/s
Metadata:
encoder : Lavc56.25.100 libmp3lame
Stream mapping:
Stream #0:0 -> #0:0 (pcm_s16le (native) -> mp3 (libmp3lame))
Press [q] to stop, [?] for help
size= 11kB time=00:00:00.64 bitrate= 137.8kbits/s size= 21kB
time=00:00:01.29 bitrate= 132.9kbits/s size= 30kB time=00:00:01.84 bitrate=
131.4kbits/s size= 40kB time=00:00:02.49 bitrate= 130.6kbits/s size=
50kB time=00:00:03.14 bitrate= 130.0kbits/s size= 59kB time=00:00:03.72
bitrate= 129.7kbits/s size= 69kB time=00:00:04.36 bitrate= 129.5kbits/s
size= 79kB time=00:00:05.01 bitrate= 129.3kbits/s size= 88kB
time=00:00:05.56 bitrate= 129.1kbits/s size= 98kB time=00:00:06.21 bitrate=
129.0kbits/s size= 107kB time=00:00:06.79 bitrate= 128.9kbits/s size=
119kB time=00:00:07.53 bitrate= 128.8kbits/s size= 129kB time=00:00:08.18
bitrate= 128.8kbits/s size= 139kB time=00:00:08.83 bitrate= 128.7kbits/s
size= 147kB time=00:00:09.38 bitrate= 128.7kbits/s size= 156kB
time=00:00:09.93 bitrate= 128.6kbits/s size= 168kB time=00:00:10.68 bitrate=
128.6kbits/s size= 177kB time=00:00:11.25 bitrate= 128.6kbits/s size=
185kB time=00:00:11.80 bitrate= 128.5kbits/s size= 195kB time=00:00:12.45
bitrate= 128.5kbits/s size= 204kB time=00:00:13.00 bitrate= 128.5kbits/s
size= 215kB time=00:00:13.68 bitrate= 128.5kbits/s size= 225kB
time=00:00:14.32 bitrate= 128.4kbits/s size= 236kB time=00:00:15.07 bitrate=
128.4kbits/s size= 245kB time=00:00:15.62 bitrate= 128.4kbits/s size=
255kB time=00:00:16.27 bitrate= 128.4kbits/s size= 264kB time=00:00:16.82
bitrate= 128.4kbits/s size= 271kB time=00:00:17.30 bitrate= 128.4kbits/s
size= 280kB time=00:00:17.85 bitrate= 128.4kbits/s size= 287kB
time=00:00:18.31 bitrate= 128.3kbits/s size= 297kB time=00:00:18.98 bitrate=
128.3kbits/s size= 306kB time=00:00:19.53 bitrate= 128.3kbits/s size=
315kB time=00:00:20.08 bitrate= 128.3kbits/s size= 322kB time=00:00:20.56
bitrate= 128.3kbits/s size= 332kB time=00:00:21.21 bitrate= 128.3kbits/s
size= 342kB time=00:00:21.86 bitrate= 128.3kbits/s size= 353kB
time=00:00:22.51 bitrate= 128.3kbits/s size= 363kB time=00:00:23.16 bitrate=
128.3kbits/s size= 373kB time=00:00:23.80 bitrate= 128.3kbits/s size=
383kB time=00:00:24.45 bitrate= 128.3kbits/s size= 393kB time=00:00:25.12
bitrate= 128.3kbits/s size= 402kB time=00:00:25.68 bitrate= 128.2kbits/s
size= 409kB time=00:00:26.13 bitrate= 128.2kbits/s size= 419kB
time=00:00:26.78 bitrate= 128.2kbits/s size= 428kB time=00:00:27.36 bitrate=
128.2kbits/s size= 440kB time=00:00:28.10 bitrate= 128.2kbits/s size=
450kB time=00:00:28.75 bitrate= 128.2kbits/s size= 460kB time=00:00:29.40
bitrate= 128.2kbits/s size= 470kB time=00:00:30.04 bitrate= 128.2kbits/s
size= 480kB time=00:00:30.69 bitrate= 128.2kbits/s size= 491kB
time=00:00:31.36 bitrate= 128.2kbits/s size= 501kB time=00:00:32.01 bitrate=
128.2kbits/s size= 511kB time=00:00:32.66 bitrate= 128.2kbits/s size=
520kB time=00:00:33.21 bitrate= 128.2kbits/s size= 530kB time=00:00:33.86
bitrate= 128.2kbits/s size= 540kB time=00:00:34.51 bitrate= 128.2kbits/s
size= 551kB time=00:00:35.18 bitrate= 128.2kbits/s size= 561kB
time=00:00:35.83 bitrate= 128.2kbits/s size= 571kB time=00:00:36.48 bitrate=
128.2kbits/s size= 582kB time=00:00:37.22 bitrate= 128.2kbits/s size=
593kB time=00:00:37.87 bitrate= 128.2kbits/s size= 603kB time=00:00:38.52
bitrate= 128.2kbits/s size= 613kB time=00:00:39.16 bitrate= 128.2kbits/s
size= 623kB time=00:00:39.81 bitrate= 128.2kbits/s size= 633kB
time=00:00:40.48 bitrate= 128.2kbits/s size= 644kB time=00:00:41.13 bitrate=
128.2kbits/s size= 654kB time=00:00:41.78 bitrate= 128.2kbits/s size=
664kB time=00:00:42.43 bitrate= 128.2kbits/s size= 674kB time=00:00:43.08
bitrate= 128.1kbits/s size= 684kB time=00:00:43.72 bitrate= 128.1kbits/s
size= 695kB time=00:00:44.40 bitrate= 128.1kbits/s size= 706kB
time=00:00:45.14 bitrate= 128.1kbits/s size= 716kB time=00:00:45.79 bitrate=
128.1kbits/s size= 726kB time=00:00:46.44 bitrate= 128.1kbits/s size=
737kB time=00:00:47.08 bitrate= 128.1kbits/s size= 747kB time=00:00:47.73
bitrate= 128.1kbits/s size= 757kB time=00:00:48.38 bitrate= 128.1kbits/s
size= 767kB time=00:00:49.03 bitrate= 128.1kbits/s size= 777kB
time=00:00:49.70 bitrate= 128.1kbits/s size= 788kB time=00:00:50.35 bitrate=
128.1kbits/s size= 798kB time=00:00:51.00 bitrate= 128.1kbits/s size=
806kB time=00:00:51.55 bitrate= 128.1kbits/s size= 816kB time=00:00:52.20
bitrate= 128.1kbits/s size= 827kB time=00:00:52.87 bitrate= 128.1kbits/s
size= 836kB time=00:00:53.42 bitrate= 128.1kbits/s size= 846kB
time=00:00:54.07 bitrate= 128.1kbits/s size= 854kB time=00:00:54.62 bitrate=
128.1kbits/s size= 863kB time=00:00:55.17 bitrate= 128.1kbits/s size=
872kB time=00:00:55.75 bitrate= 128.1kbits/s size= 881kB time=00:00:56.30
bitrate= 128.1kbits/s size= 892kB time=00:00:57.04 bitrate= 128.1kbits/s
size= 902kB time=00:00:57.69 bitrate= 128.1kbits/s size= 912kB
time=00:00:58.34 bitrate= 128.1kbits/s size= 921kB time=00:00:58.92 bitrate=
128.1kbits/s size= 932kB time=00:00:59.56 bitrate= 128.1kbits/s size=
942kB time=00:01:00.21 bitrate= 128.1kbits/s size= 952kB time=00:01:00.86
bitrate= 128.1kbits/s size= 962kB time=00:01:01.51 bitrate= 128.1kbits/s
size= 972kB time=00:01:02.16 bitrate= 128.1kbits/s size= 984kB
time=00:01:02.90 bitrate= 128.1kbits/s size= 994kB time=00:01:03.57 bitrate=
128.1kbits/s size= 1004kB time=00:01:04.22 bitrate= 128.1kbits/s size=
1014kB time=00:01:04.87 bitrate= 128.1kbits/s size= 1023kB time=00:01:05.42
bitrate= 128.1kbits/s size= 1033kB time=00:01:06.07 bitrate= 128.1kbits/s
size= 1043kB time=00:01:06.72 bitrate= 128.1kbits/s size= 1054kB
time=00:01:07.39 bitrate= 128.1kbits/s size= 1064kB time=00:01:08.04 bitrate=
128.1kbits/s size= 1074kB time=00:01:08.68 bitrate= 128.1kbits/s size=
1084kB time=00:01:09.33 bitrate= 128.1kbits/s size= 1094kB time=00:01:09.98
bitrate= 128.1kbits/s size= 1106kB time=00:01:10.72 bitrate= 128.1kbits/s
size= 1116kB time=00:01:11.37 bitrate= 128.1kbits/s size= 1127kB
time=00:01:12.04 bitrate= 128.1kbits/s size= 1137kB time=00:01:12.69 bitrate=
128.1kbits/s size= 1147kB time=00:01:13.34 bitrate= 128.1kbits/s size=
1157kB time=00:01:13.99 bitrate= 128.1kbits/s size= 1167kB time=00:01:14.64
bitrate= 128.1kbits/s size= 1176kB time=00:01:15.19 bitrate= 128.1kbits/s
size= 1185kB time=00:01:15.76 bitrate= 128.1kbits/s size= 1195kB
time=00:01:16.41 bitrate= 128.1kbits/s size= 1206kB time=00:01:17.16 bitrate=
128.1kbits/s size= 1217kB time=00:01:17.80 bitrate= 128.1kbits/s size=
1227kB time=00:01:18.45 bitrate= 128.1kbits/s size= 1237kB time=00:01:19.10
bitrate= 128.1kbits/s size= 1247kB time=00:01:19.75 bitrate= 128.1kbits/s
size= 1257kB time=00:01:20.42 bitrate= 128.1kbits/s size= 1268kB
time=00:01:21.07 bitrate= 128.1kbits/s size= 1279kB time=00:01:21.81 bitrate=
128.1kbits/s size= 1289kB time=00:01:22.46 bitrate= 128.1kbits/s size=
1299kB time=00:01:23.11 bitrate= 128.1kbits/s size= 1310kB time=00:01:23.76
bitrate= 128.1kbits/s size= 1317kB time=00:01:24.24 bitrate= 128.1kbits/s
size= 1324kB time=00:01:24.69 bitrate= 128.1kbits/s size= 1334kB
time=00:01:25.34 bitrate= 128.1kbits/s size= 1344kB time=00:01:25.99 bitrate=
128.1kbits/s size= 1353kB time=00:01:26.56 bitrate= 128.1kbits/s size=
1362kB time=00:01:27.12 bitrate= 128.1kbits/s size= 1372kB time=00:01:27.76
bitrate= 128.1kbits/s size= 1381kB time=00:01:28.32 bitrate= 128.1kbits/s
size= 1391kB time=00:01:28.96 bitrate= 128.1kbits/s size= 1398kB
time=00:01:29.44 bitrate= 128.1kbits/s size= 1407kB time=00:01:30.00 bitrate=
128.1kbits/s size= 1417kB time=00:01:30.64 bitrate= 128.1kbits/s size=
1427kB time=00:01:31.29 bitrate= 128.1kbits/s size= 1439kB time=00:01:32.04
bitrate= 128.1kbits/s size= 1449kB time=00:01:32.71 bitrate= 128.1kbits/s
size= 1458kB time=00:01:33.26 bitrate= 128.1kbits/s size= 1468kB
time=00:01:33.91 bitrate= 128.1kbits/s size= 1478kB time=00:01:34.56 bitrate=
128.1kbits/s size= 1490kB time=00:01:35.30 bitrate= 128.1kbits/s size=
1500kB time=00:01:35.95 bitrate= 128.1kbits/s size= 1511kB time=00:01:36.62
bitrate= 128.1kbits/s size= 1521kB time=00:01:37.27 bitrate= 128.1kbits/s
size= 1532kB time=00:01:38.01 bitrate= 128.1kbits/s size= 1542kB
time=00:01:38.66 bitrate= 128.1kbits/s size= 1553kB time=00:01:39.31 bitrate=
128.1kbits/s size= 1564kB time=00:01:40.05 bitrate= 128.1kbits/s size=
1574kB time=00:01:40.70 bitrate= 128.1kbits/s size= 1584kB time=00:01:41.35
bitrate= 128.1kbits/s size= 1595kB time=00:01:42.02 bitrate= 128.1kbits/s
size= 1605kB time=00:01:42.67 bitrate= 128.1kbits/s size= 1617kB
time=00:01:43.41 bitrate= 128.1kbits/s size= 1627kB time=00:01:44.06 bitrate=
128.1kbits/s size= 1637kB time=00:01:44.71 bitrate= 128.1kbits/s size=
1647kB time=00:01:45.36 bitrate= 128.1kbits/s size= 1657kB time=00:01:46.00
bitrate= 128.1kbits/s size= 1667kB time=00:01:46.65 bitrate= 128.1kbits/s