You are on page 1of 1

foobar2000 1.4 / Dynamic Range Meter 1.1.

1
log date: 2018-12-06 17:01:58

--------------------------------------------------------------------------------
Analyzed: Charly García / Piano Bar
--------------------------------------------------------------------------------

DR Peak RMS Duration Track
--------------------------------------------------------------------------------
DR13 -0.32 dB -16.52 dB 2:19 01-Demoliendo hoteles
DR14 -0.01 dB -16.24 dB 2:47 02-Promesas sobre el bidet
DR14 -1.49 dB -17.64 dB 3:37 03-Raros peinados nuevos
DR16 0.00 dB -19.96 dB 4:58 04-Piano Bar
DR15 -1.50 dB -20.38 dB 4:09 05-No te animás a despegar
DR14 -1.15 dB -17.80 dB 2:12 06-No se va a llamar mi amor
DR17 0.00 dB -20.24 dB 3:37 07-Tuve tu amor
DR15 -0.72 dB -18.46 dB 2:11 08-Rap del exilio
DR15 0.00 dB -17.09 dB 4:43 09-Cerca de la revolución
DR18 0.00 dB -21.98 dB 5:00 10-Total interferencia
--------------------------------------------------------------------------------

Number of tracks: 10
Official DR value: DR15

Samplerate: 44100 Hz
Channels: 2
Bits per sample: 16
Bitrate: 662 kbps
Codec: FLAC
================================================================================